权欲第四章:武力 (2022) 第一季/全10集 (2022)4K高清版本下载

[复制链接]

130

主题

149

帖子

1459

积分

版主

Rank: 7Rank: 7Rank: 7

积分
1459
 楼主| 发表于 2022-4-19 10:29:34 | 显示全部楼层 |阅读模式
本帖最后由 叽里呱啦 于 2022-4-19 20:00 编辑

p2867713121.webp_副本.jpg

◎译  名 权欲第四章:武力
◎片  名 Power Book IV: Force
◎年  代 2022
◎产  地 美国
◎类  别 剧情/犯罪
◎语  言 英语
◎上映日期 2022-02-06(美国)
◎IMDb评分  8.2/10 from 3423 users
◎IMDb链接  https://www.imdb.com/title/tt11761194/
◎豆瓣评分 /10 from 0 users
◎豆瓣链接 https://douban.com/subject/35657048/
◎导  演 德翁·泰勒 Deon Taylor
◎编  剧 罗伯特·穆尼克 Robert Munic
◎主  演 约瑟夫·斯科拉 Joseph Sikora
       Kristopher Lofton Kristopher Lofton
       加布里埃·瑞安 Gabrielle Ryan
       Anthony Fleming Anthony Fleming
       路易斯·乔斯·洛佩斯 Luis Jose Lopez
       莉莉·西蒙斯 Lili Simmons
       汤米·弗拉纳根 Tommy Flanagan
       莫尼克·加布里埃拉·库尔内 Monique Gabriela Curnen
       肖恩·哈珀 Shane Harper
       米丽亚姆·A·海曼 Miriam A. Hyman


◎简  介


  汤米·伊根切断了联系,把纽约永远放在了他的后视镜里。

Video
ID                             : 1
Format                         : HEVC
Format/Info                    : High Efficiency Video Coding
Format profile                 : Main@L5@High
Codec ID                       : V_MPEGH/ISO/HEVC
Duration                       : 56 min 29 s
Bit rate                       : 8 559 kb/s
Width                          : 3 840 pixels
Height                         : 2 160 pixels
Display aspect ratio           : 16:9
Frame rate mode                : Constant
Frame rate                     : 23.976 (24000/1001) FPS
Color space                    : YUV
Chroma subsampling             : 4:2:0
Bit depth                      : 8 bits
Bits/(Pixel*Frame)             : 0.043
Stream size                    : 3.38 GiB (91%)
Default                        : Yes
Forced                         : No
Color range                    : Limited
Color primaries                : BT.709
Transfer characteristics       : BT.709
Matrix coefficients            : BT.709

Audio
ID                             : 2
Format                         : E-AC-3
Format/Info                    : Enhanced AC-3
Commercial name                : Dolby Digital Plus
Codec ID                       : A_EAC3
Duration                       : 56 min 29 s
Bit rate mode                  : Constant
Bit rate                       : 640 kb/s
Channel(s)                     : 6 channels
Channel layout                 : L R C LFE Ls Rs
Sampling rate                  : 48.0 kHz
Frame rate                     : 31.250 FPS (1536 SPF)
Compression mode               : Lossy
Stream size                    : 259 MiB (7%)
Language                       : English
Service kind                   : Complete Main
Default                        : Yes
Forced                         : No

Text #1
ID                             : 3
Format                         : UTF-8
Codec ID                       : S_TEXT/UTF8
Codec ID/Info                  : UTF-8 Plain Text
Language                       : English
Default                        : No
Forced                         : No

Text #2
ID                             : 4
Format                         : UTF-8
Codec ID                       : S_TEXT/UTF8
Codec ID/Info                  : UTF-8 Plain Text
Title                          : SDH
Language                       : English
Default                        : No
Forced                         : No

Menu
00:02:44.000                   : Intro
00:04:15.000                   : Chapter 1
00:55:08.000                   : Credits

下载地址:

游客,如果您要查看本帖隐藏内容请回复



.

上一篇:咆哮 / Roar 第一季/全8集 (2022)/ 4K高清版本下载
下一篇:生命不息 / Life After Life (2022) /第一季全4集/4K高清版本下载
回复

使用道具 举报

2

主题

1392

帖子

4198

积分

4K家园VIP

Rank: 9Rank: 9Rank: 9

积分
4198
发表于 2022-4-19 10:29:52 | 显示全部楼层
感谢楼主发帖,前排顶起
回复 支持 反对

使用道具 举报

2

主题

1412

帖子

4056

积分

4K家园VIP

Rank: 9Rank: 9Rank: 9

积分
4056
发表于 2022-4-19 11:03:41 来自手机 | 显示全部楼层
我擦!我要沙发!
回复 支持 反对

使用道具 举报

0

主题

1302

帖子

3922

积分

4K家园VIP

Rank: 9Rank: 9Rank: 9

积分
3922
发表于 2022-4-19 11:51:43 | 显示全部楼层
LZ敢整点更有创意的不?兄弟们等着围观捏~
回复 支持 反对

使用道具 举报

1

主题

1362

帖子

4100

积分

4K家园VIP

Rank: 9Rank: 9Rank: 9

积分
4100
发表于 2022-4-19 12:27:27 | 显示全部楼层
垃圾内容,路过为证。
回复 支持 反对

使用道具 举报

5

主题

1374

帖子

3964

积分

4K家园VIP

Rank: 9Rank: 9Rank: 9

积分
3964
发表于 2022-4-19 13:04:41 | 显示全部楼层
看帖要回,回帖才健康,在踩踩,楼主辛苦了!
回复 支持 反对

使用道具 举报

0

主题

2

帖子

13

积分

新手上路

Rank: 1

积分
13
发表于 2022-4-19 18:17:14 | 显示全部楼层
谢谢分享
回复

使用道具 举报

0

主题

3

帖子

16

积分

新手上路

Rank: 1

积分
16
发表于 2022-4-19 18:24:55 | 显示全部楼层

回复

使用道具 举报

0

主题

12

帖子

154

积分

新手上路

Rank: 1

积分
154
发表于 2022-4-20 08:50:29 | 显示全部楼层
权利斗争是永恒的话题
回复 支持 反对

使用道具 举报

1

主题

32

帖子

83

积分

新手上路

Rank: 1

积分
83
发表于 2022-4-20 09:43:01 | 显示全部楼层
感谢楼主发帖
回复 支持 反对

使用道具 举报

您需要登录后才可以回帖 登录 | 立即注册

本版积分规则

精彩图文
Archiver|手机版|TAG|Sitemap|新帖|专题|联系我们:邮箱: 4kjia.com@gmail.com   

4k家园   ©2019