[4K电影] 阿伦戴尔城堡的圣诞壁炉 (2019) 4K高清版本下载

[复制链接]

1735

主题

1868

帖子

1万

积分

超级版主

Rank: 8Rank: 8

积分
14105
 楼主| 发表于 2022-4-20 10:24:56 | 显示全部楼层 |阅读模式
本帖最后由 最爱4K哟 于 2022-4-21 19:19 编辑

QQ图片20220420102339_副本.png

◎译  名 阿伦戴尔城堡的圣诞壁炉 / 艾伦戴尔城堡的圣诞壁炉(台) / 阿德尔城堡的圣诞壁炉(港)
◎片  名 Arendelle Castle Yule Log
◎年  代 2019
◎产  地 美国
◎类  别 动画
◎语  言 英语
◎上映日期 2019-12-17(美国)
◎IMDb链接 https://www.imdb.com/title/tt12053202/
◎豆瓣链接 https://movie.douban.com/subject/35138452/
◎片  长 181分钟


◎简  介


   这个温暖而诱人的场景采用纸艺制作,营造出节日的节日气氛。风格化的剪纸火焰与富有想象力的视觉效果和“冰雪奇缘”角色的轮廓相结合,为您的假期增添乐趣和享受。
Video
ID : 1
Format : HEVC
Format/Info : High Efficiency Video Coding
Format profile : Main 10@L5@High
HDR format : SMPTE ST 2086, HDR10 compatible
Codec ID : V_MPEGH/ISO/HEVC
Duration : 3 h 0 min
Bit rate : 15.3 Mb/s
Width : 3 840 pixels
Height : 2 160 pixels
Display aspect ratio : 16:9
Frame rate mode : Constant
Frame rate : 24.000 FPS
Color space : YUV
Chroma subsampling : 4:2:0
Bit depth : 10 bits
Bits/(Pixel*Frame) : 0.077
Stream size : 19.2 GiB (98%)
Language : English
Default : Yes
Forced : No
Color range : Limited
Color primaries : BT.2020
Transfer characteristics : PQ
Matrix coefficients : BT.2020 non-constant
Mastering display color primaries : BT.2020
Mastering display luminance : min: 0.0000 cd/m2, max: 1000 cd/m2

Audio
ID : 2
Format : E-AC-3
Format/Info : Enhanced AC-3
Commercial name : Dolby Digital Plus
Codec ID : A_EAC3
Duration : 3 h 0 min
Bit rate mode : Constant
Bit rate : 256 kb/s
Channel(s) : 6 channels
Channel layout : L R C LFE Ls Rs
Sampling rate : 48.0 kHz
Frame rate : 31.250 FPS (1536 SPF)
Compression mode : Lossy
Stream size : 330 MiB (2%)
Language : English
Service kind : Complete Main
Default : Yes
Forced : No

Text
ID : 3
Format : UTF-8
Codec ID : S_TEXT/UTF8
Codec ID/Info : UTF-8 Plain Text
Duration : 2 h 59 min
Bit rate : 0 b/s
Count of elements : 13
Stream size : 208 Bytes (0%)
Title : English (SDH)
Language : English
Default : No
Forced : No


资源速度为零或资源敏感被和谐时,推荐使用qBittorrent等下载软件,有条件的推荐115更好的下载软件!

下载地址:


游客,如果您要查看本帖隐藏内容请回复

游客,如果您要查看本帖隐藏内容请回复

游客,如果您要查看本帖隐藏内容请回复





上一篇:新蝙蝠侠(附字幕)/ The Batman (2022) 4K高清版本下载
下一篇:你将不再孤单 / You Won't Be Alone (2022)4K高清版本下载
回复

使用道具 举报

2

主题

1395

帖子

4035

积分

4K家园VIP

Rank: 9Rank: 9Rank: 9

积分
4035
发表于 2022-4-20 10:25:00 | 显示全部楼层
我擦!我要沙发!
回复 支持 反对

使用道具 举报

1

主题

1381

帖子

3949

积分

4K家园VIP

Rank: 9Rank: 9Rank: 9

积分
3949
发表于 2022-4-20 10:59:43 | 显示全部楼层
体验下4K版的
回复 支持 反对

使用道具 举报

40

主题

1501

帖子

4315

积分

4K家园VIP

Rank: 9Rank: 9Rank: 9

积分
4315
发表于 2022-4-20 11:06:57 来自手机 | 显示全部楼层
支持楼主,用户楼主,楼主英明呀!!!
回复 支持 反对

使用道具 举报

4

主题

1655

帖子

4565

积分

4K家园VIP

Rank: 9Rank: 9Rank: 9

积分
4565
发表于 2022-4-20 11:19:07 | 显示全部楼层
为毛老子总也抢不到沙发?!!
回复 支持 反对

使用道具 举报

0

主题

1647

帖子

4571

积分

4K家园VIP

Rank: 9Rank: 9Rank: 9

积分
4571
发表于 2022-4-20 11:22:31 | 显示全部楼层
感谢分享
回复 支持 反对

使用道具 举报

0

主题

8230

帖子

1万

积分

4K家园VIP

Rank: 9Rank: 9Rank: 9

积分
18830
发表于 2022-4-20 11:34:17 | 显示全部楼层
太好啦&萬分感謝版主的無私發佈分享%
回复 支持 反对

使用道具 举报

0

主题

346

帖子

2121

积分

注册会员

Rank: 2

积分
2121
发表于 2022-4-20 12:15:45 | 显示全部楼层
谢谢楼主分享
回复 支持 反对

使用道具 举报

0

主题

1

帖子

6

积分

新手上路

Rank: 1

积分
6
发表于 2022-4-24 20:26:05 | 显示全部楼层

chatburte

chatburte
回复

使用道具 举报

您需要登录后才可以回帖 登录 | 立即注册

本版积分规则

精彩图文
Archiver|手机版|TAG|Sitemap|新帖|专题|联系我们:邮箱: 4kjia.com@gmail.com   

4k家园   ©2019