[4K UHD 蓝光原盘] 美国丽人 / American Beauty (1999) 4K蓝光原盘版本下载

[复制链接]

1569

主题

1638

帖子

1万

积分

超级版主

Rank: 8Rank: 8

积分
17538
 楼主| 发表于 2022-4-20 20:04:03 | 显示全部楼层 |阅读模式
本帖最后由 没完没了 于 2022-4-21 11:04 编辑

QQ图片20220420111738_副本.png

◎译  名 美国丽人/红蔷薇/美国大美人/美国美人/美国少女/美国心·玫瑰情(台)/美丽有罪(港)
◎片  名 American Beauty
◎年  代 1999
◎产  地 美国
◎类  别 剧情/爱情/家庭
◎语  言 英语
◎上映日期 1999-09-08(洛杉矶首映)/1999-10-01(美国)
◎IMDb评分  8.4/10 from 1,129,434 users
◎IMDb链接  https://www.imdb.com/title/tt0169547/
◎豆瓣评分 8.5/10 from 309007 users
◎豆瓣链接 https://douban.com/subject/1292062/
◎片  长 122分钟
◎导  演 萨姆·门德斯 Sam Mendes
◎编  剧 艾伦·鲍尔 Alan Ball
◎主  演 凯文·史派西 Kevin Spacey
       安妮特·贝宁 Annette Bening
       索拉·伯奇 Thora Birch
       韦斯·本特利 Wes Bentley
       米娜·苏瓦丽 Mena Suvari
       彼得·盖勒 Peter Gallagher
       艾莉森·珍妮 Allison Janney
       克里斯·库珀 Chris Cooper
       斯科特·巴库拉 Scott Bakula
       山姆·洛巴兹 Sam Robards
       巴里·德尔·舍曼 Barry Del Sherman
       阿若·希利 Ara Celi
       约翰·赵 John Cho
       肯特·法尔考 Kent Faulcon
       希瑟·乔伊·谢尔 Heather Joy Sher
       切尔西·赫特福德 Chelsea Hertford
       安贝尔·史密斯 Amber Smith
       乔尔·麦克拉里 Joel McCrary
       玛丽莎·贾里特·威诺克 Marissa Jaret Winokur
       丹尼斯·安德森 Dennis Anderson
       布鲁斯·科恩 Bruce Cohen


◎简  介


  莱斯特(凯文·史派西 Kevin Spacey 饰)跟许多中年男人一样,遇到了各种各样的人生难题。他在一个广告公司工作,成绩平平,但是妻子却比他混得出色,一派女强人作风。这个平凡的男人还有一个未成年的女儿珍妮(索拉·伯奇 Thora Birch饰)。

  珍妮性格叛逆,被邻居偷拍裸照还觉得很好玩,满不在乎。她有一个要好的同学安吉拉(米娜·苏瓦丽 Mena Suvari 饰),当莱斯特在拉拉队的人群中看到了充满青春活力的安吉拉,一切都改变了。莱斯特陷入了阿安吉拉年轻鲜活的气息当中。他死气沉沉的心境有了燃烧的感觉。而此时,他的妻子,也和另外一个富商有了私情。当莱斯特得到了他心目中的年轻女神,枪声也随之响起……


◎获奖情况

  第72届奥斯卡金像奖  (2000)
  最佳影片 丹·金克斯 / 布鲁斯·科恩
  最佳导演 萨姆·门德斯
  最佳男主角 凯文·史派西
  最佳女主角(提名) 安妮特·贝宁
  最佳原创剧本 艾伦·鲍尔
  最佳摄影 康拉德·霍尔
  最佳剪辑(提名) 塔里克·安瓦尔 / 克里斯托弗·格林伯里
  最佳原创配乐(提名) 托马斯·纽曼

  第57届金球奖  (2000)
  电影类最佳剧情片
  电影类最佳导演 萨姆·门德斯
  电影类剧情片最佳男主角(提名) 凯文·史派西
  电影类剧情片最佳女主角(提名) 安妮特·贝宁
  电影类最佳编剧 艾伦·鲍尔
  电影类最佳原创配乐(提名) 托马斯·纽曼

  第53届英国电影学院奖  (2000)
  电影奖最佳影片 丹·金克斯 / 布鲁斯·科恩
  电影奖最佳导演(提名) 萨姆·门德斯
  电影奖最佳男主角 凯文·史派西
  电影奖最佳女主角 安妮特·贝宁
  电影奖最佳男配角(提名) 韦斯·本特利
  电影奖最佳女配角(提名) 索拉·伯奇 / 米娜·苏瓦丽
  电影奖最佳原创剧本(提名) 艾伦·鲍尔
  电影奖最佳摄影 康拉德·霍尔
  电影奖最佳剪辑 塔里克·安瓦尔 / 克里斯托弗·格林伯里
  电影奖最佳化妆/发型(提名) 塔尼亚·麦克科马斯 / 卡罗尔·A·奥康奈尔
  电影奖最佳艺术指导(提名) 纳奥米·索翰
  电影奖最佳原创音乐 托马斯·纽曼
  电影奖最佳音效(提名) 斯科特·米兰 / 鲍勃·贝默尔 / 斯科特·马丁·格尔琴 / 理查德·范·戴克 / 斯科特·米兰 / 鲍勃·贝默尔 / 斯科特·马丁·格尔琴 / 理查德·范·戴克

  第24届日本电影学院奖  (2001)
  最佳外语片(提名)
General
Unique ID : 271198902841410106443353524411886137309 (0xCC07023FD8C2A642CE07A518B832EFDD)
Complete name : American.Beauty.1999.2160p.UpsUHD.HEVC.HDR.DTS-HD.MA.5.1-BLKFLX.mkv
Format : Matroska
Format version : Version 4
File size : 49.4 GiB
Duration : 2 h 1 min
Overall bit rate mode : Variable
Overall bit rate : 58.1 Mb/s
Writing application : mkvmerge v65.0.0 ('Too Much') 64-bit
Writing library : libebml v1.4.2 + libmatroska v1.6.4

Video
ID : 1
Format : HEVC
Format/Info : High Efficiency Video Coding
Format profile : Main [email protected]@High
HDR format : SMPTE ST 2086, HDR10 compatible
Codec ID : V_MPEGH/ISO/HEVC
Duration : 2 h 1 min
Bit rate : 55.0 Mb/s
Width : 3 840 pixels
Height : 1 636 pixels
Display aspect ratio : 2.35:1
Frame rate mode : Constant
Frame rate : 23.976 (24000/1001) FPS
Color space : YUV
Chroma subsampling : 4:2:0 (Type 2)
Bit depth : 10 bits
Bits/(Pixel*Frame) : 0.365
Stream size : 46.7 GiB (95%)
Default : Yes
Forced : No
Color range : Limited
Color primaries : BT.2020
Transfer characteristics : PQ
Matrix coefficients : BT.2020 non-constant
Mastering display color primaries : Display P3
Mastering display luminance : min: 0.0001 cd/m2, max: 1000 cd/m2
Maximum Content Light Level : 486 cd/m2
Maximum Frame-Average Light Level : 81 cd/m2

Audio #1
ID : 2
Format : DTS XLL
Format/Info : Digital Theater Systems
Commercial name : DTS-HD Master Audio
Codec ID : A_DTS
Duration : 2 h 1 min
Bit rate mode : Variable
Bit rate : 2 505 kb/s
Channel(s) : 6 channels
Channel layout : C L R Ls Rs LFE
Sampling rate : 48.0 kHz
Frame rate : 93.750 FPS (512 SPF)
Bit depth : 24 bits
Compression mode : Lossless
Stream size : 2.13 GiB (4%)
Language : English
Default : Yes
Forced : No

Audio #2
ID : 3
Format : AC-3
Format/Info : Audio Coding 3
Commercial name : Dolby Digital
Codec ID : A_AC3
Duration : 2 h 1 min
Bit rate mode : Constant
Bit rate : 640 kb/s
Channel(s) : 6 channels
Channel layout : L R C LFE Ls Rs
Sampling rate : 48.0 kHz
Frame rate : 31.250 FPS (1536 SPF)
Compression mode : Lossy
Stream size : 557 MiB (1%)
Language : German
Service kind : Complete Main
Default : Yes
Forced : No

Text #1
ID : 4
Format : UTF-8
Codec ID : S_TEXT/UTF8
Codec ID/Info : UTF-8 Plain Text
Duration : 1 h 55 min
Bit rate : 48 b/s
Count of elements : 1170
Stream size : 40.9 KiB (0%)
Language : English
Default : Yes
Forced : No

Text #2
ID : 5
Format : UTF-8
Codec ID : S_TEXT/UTF8
Codec ID/Info : UTF-8 Plain Text
Duration : 1 h 55 min
Bit rate : 42 b/s
Count of elements : 1244
Stream size : 35.6 KiB (0%)
Language : German
Default : Yes
Forced : No

Menu
00:00:00.000 : en:The High Point of My Day
00:04:25.724 : en:Job Description
00:10:20.078 : en:I Will Sell This House Today
00:13:52.790 : en:The Gym
00:19:05.603 : en:Spectacular
00:23:52.097 : en:Welcome to the Neighborhood
00:26:28.712 : en:I'm Just Curious
00:30:01.383 : en:My Personal Hero
00:35:51.399 : en:I Love Root Beer
00:39:53.600 : en:America's Weirdest Home Videos
00:42:31.466 : en:Choking the Bishop
00:46:11.936 : en:I Want to Look Good Naked
00:50:05.920 : en:Mom's Mad
00:51:25.708 : en:An Ordinary Guy With Nothing to Lose
00:55:31.370 : en:The Royal Treatment
00:59:50.212 : en:The Most Beautiful Thing
01:05:03.608 : enass the Asparagus
01:09:17.737 : enon't Give up on Me Dad
01:13:29.614 : en:Mr. Smarty Man
01:17:49.748 : en:Massive Psychological Damage
01:23:23.707 : en:The Day You Die
01:26:54.876 : en:Smile, You're at Mr. Smiley's
01:32:41.306 : en:You Like Muscles?
01:38:44.001 : en:Our Marriage is Just for Show
01:42:28.851 : en:You Couldn't Be Ordinary if You Tried
01:48:47.187 : en:I'm Great
01:51:51.914 : en:My Stupid Little Life
01:55:58.952 : en:End Credits

新种推荐使用qBittorrent、uTorrent等下载软件,有条件的推荐115更好的下载软件!

美国丽人(49.76GB)American.Beauty.1999.2160p.UpsUHD.HEVC.HDR.DTS-HD.MA.5.1-BLKFLX


****此区域为收费内容****    需支付 30 金币后可查看立即购买







4K QQ,爱心.gif



上一篇:寄生虫(美版)/ Parasite (2019) 4K蓝光[原盘+REMUX]版本下载
下一篇:被解救的姜戈 / Django Unchained (2012) 4K蓝光原盘版本下载
回复

使用道具 举报

37

主题

1407

帖子

4037

积分

4K家园VIP

Rank: 9Rank: 9Rank: 9

积分
4037
发表于 2022-4-20 20:04:08 | 显示全部楼层
4K家园资源不错,前排支持
回复 支持 反对

使用道具 举报

55

主题

1606

帖子

4634

积分

4K家园VIP

Rank: 9Rank: 9Rank: 9

积分
4634
发表于 2022-4-20 20:04:08 来自手机 | 显示全部楼层
感谢分享
回复 支持 反对

使用道具 举报

2

主题

1176

帖子

3548

积分

4K家园VIP

Rank: 9Rank: 9Rank: 9

积分
3548
发表于 2022-4-21 00:32:54 来自手机 | 显示全部楼层
楼猪辛苦了,支持一下分享好资源
回复 支持 反对

使用道具 举报

2

主题

1386

帖子

4182

积分

4K家园VIP

Rank: 9Rank: 9Rank: 9

积分
4182
发表于 2022-4-21 05:11:51 | 显示全部楼层
谢谢楼主
回复 支持 反对

使用道具 举报

2

主题

1342

帖子

4042

积分

4K家园VIP

Rank: 9Rank: 9Rank: 9

积分
4042
发表于 2022-4-21 06:29:24 来自手机 | 显示全部楼层
楼猪辛苦了,支持一下分享好资源
回复 支持 反对

使用道具 举报

0

主题

105

帖子

5768

积分

高级会员

Rank: 3Rank: 3

积分
5768
发表于 2022-4-21 09:24:39 | 显示全部楼层
支持一下分享好资源
回复 支持 反对

使用道具 举报

2

主题

234

帖子

3077

积分

中级会员

Rank: 4

积分
3077
发表于 2022-4-21 09:43:41 | 显示全部楼层

4K家园资源真心不错
回复 支持 反对

使用道具 举报

0

主题

16

帖子

41

积分

新手上路

Rank: 1

积分
41
发表于 2022-5-3 19:51:35 | 显示全部楼层
多谢多戏
回复

使用道具 举报

您需要登录后才可以回帖 登录 | 立即注册

本版积分规则

精彩图文
Archiver|手机版|TAG|Sitemap|新帖|专题|联系我们:邮箱: 4kjia.com@gmail.com   

4k家园   ©2019