[4K女团] 2022 YENA - Smiley (Performance Video) [2160P/MP4/383MB]

[复制链接]

2769

主题

3127

帖子

2万

积分

超级版主

Rank: 8Rank: 8

积分
26207
 楼主| 发表于 2022-4-21 10:45:15 | 显示全部楼层 |阅读模式
本帖最后由 叽里呱啦 于 2022-4-21 10:48 编辑

YENA - Smiley (Performance Video) [Naver 2160p].mp4_20220421_103559.141.jpg YENA - Smiley (Performance Video) [Naver 2160p].mp4_20220421_103608.628.jpg YENA - Smiley (Performance Video) [Naver 2160p].mp4_20220421_103614.140.jpg YENA - Smiley (Performance Video) [Naver 2160p].mp4_20220421_103620.435.jpg YENA - Smiley (Performance Video) [Naver 2160p].mp4_20220421_103626.932.jpg YENA - Smiley (Performance Video) [Naver 2160p].mp4_20220421_103639.436.jpg YENA - Smiley (Performance Video) [Naver 2160p].mp4_20220421_103649.243.jpg YENA - Smiley (Performance Video) [Naver 2160p].mp4_20220421_103718.116.jpg
General
Complete name                  : F:\4K女团\YENA\YENA - Smiley (Performance Video) [Naver 2160p].mp4
Format                         : MPEG-4
Format profile                 : Base Media
Codec ID                       : isom (isom/iso2/avc1/mp41)
File size                      : 383 MiB
Duration                       : 3 min 10 s
Overall bit rate               : 16.9 Mb/s
Writing application            : Lavf58.12.100
exvr                           : EX1.11.0.P20.B007|C2.0.1.P20

Video
ID                             : 1
Format                         : AVC
Format/Info                    : Advanced Video Codec
Format profile                 : High@L5.1
Format settings                : CABAC / 4 Ref Frames
Format settings, CABAC         : Yes
Format settings, Reference fra : 4 frames
Codec ID                       : avc1
Codec ID/Info                  : Advanced Video Coding
Duration                       : 3 min 10 s
Bit rate                       : 16.7 Mb/s
Width                          : 3 840 pixels
Height                         : 2 160 pixels
Display aspect ratio           : 16:9
Frame rate mode                : Constant
Frame rate                     : 23.976 (23976/1000) FPS
Color space                    : YUV
Chroma subsampling             : 4:2:0
Bit depth                      : 8 bits
Scan type                      : Progressive
Bits/(Pixel*Frame)             : 0.084
Stream size                    : 379 MiB (99%)
Color range                    : Limited
Color primaries                : BT.709
Transfer characteristics       : BT.709
Matrix coefficients            : BT.709
Codec configuration box        : avcC

Audio
ID                             : 2
Format                         : AAC LC
Format/Info                    : Advanced Audio Codec Low Complexity
Codec ID                       : mp4a-40-2
Duration                       : 3 min 10 s
Bit rate mode                  : Constant
Bit rate                       : 192 kb/s
Channel(s)                     : 2 channels
Channel layout                 : L R
Sampling rate                  : 48.0 kHz
Frame rate                     : 46.875 FPS (1024 SPF)
Compression mode               : Lossy
Stream size                    : 4.36 MiB (1%)
Default                        : Yes
Alternate group                : 1

下载地址:
****此区域为收费内容****    需支付 25 金币后可查看立即购买

PS:小水管制作不易,下载后请自觉做种,谢谢!
提供2010-2022年本人多年来珍藏优质[4K、8K、16K(25-120fps)] 高品质韩国(女团)MV、各种演示片、测试片等4K韩国MV“珍藏版”视频硬盘有偿拷贝或网盘分享,最新4K视频每天更新中,需要的联系本楼主!




上一篇:[4K韩国女团] 2021 TRI.BE - RUB-A-DUM (PERFORMANCE) 4k [2160P/MP4/439MB]
下一篇:[4K韩国女团] 2022 全素妍- Beam Beam[收藏Master 2160][2160P/MP4/1.50GB]
回复

使用道具 举报

66

主题

1536

帖子

4472

积分

4K家园VIP

Rank: 9Rank: 9Rank: 9

积分
4472
发表于 2022-4-21 10:45:19 | 显示全部楼层
专业抢沙发的!哈哈
回复 支持 反对

使用道具 举报

1

主题

1338

帖子

4030

积分

4K家园VIP

Rank: 9Rank: 9Rank: 9

积分
4030
发表于 2022-4-23 15:55:22 | 显示全部楼层
楼下的接上
回复 支持 反对

使用道具 举报

3

主题

1779

帖子

4885

积分

中级会员

Rank: 4

积分
4885
发表于 2022-4-24 23:25:22 | 显示全部楼层
支持,楼下的跟上哈~
回复 支持 反对

使用道具 举报

3

主题

1412

帖子

4062

积分

4K家园VIP

Rank: 9Rank: 9Rank: 9

积分
4062
发表于 2022-4-25 08:55:30 | 显示全部楼层
我只是路过,不发表意见
回复 支持 反对

使用道具 举报

39

主题

1527

帖子

4375

积分

4K家园VIP

Rank: 9Rank: 9Rank: 9

积分
4375
发表于 2022-4-26 03:55:32 | 显示全部楼层
体验下4K版的
回复 支持 反对

使用道具 举报

0

主题

7

帖子

331

积分

4K家园VIP

Rank: 9Rank: 9Rank: 9

积分
331
发表于 2022-5-3 09:31:08 | 显示全部楼层
资源根本无法下载
回复 支持 反对

使用道具 举报

您需要登录后才可以回帖 登录 | 立即注册

本版积分规则

精彩图文
Archiver|手机版|TAG|Sitemap|新帖|专题|联系我们:邮箱: 4kjia.com@gmail.com   

4k家园   ©2019