[4K电影] 你将不再孤单 / You Won't Be Alone (2022)4K高清版本下载

[复制链接]

1733

主题

1866

帖子

1万

积分

超级版主

Rank: 8Rank: 8

积分
14095
 楼主| 发表于 2022-4-21 19:17:05 | 显示全部楼层 |阅读模式
p2783855500_副本.jpg

◎译  名 你将不再孤单
◎片  名 You Won't Be Alone
◎年  代 2022
◎产  地 澳大利亚
◎类  别 恐怖
◎语  言 马其顿语
◎上映日期 2022-01-22(圣丹斯电影节)/2022-04-01(美国)
◎IMDb评分  7.0/10 from 601 users
◎IMDb链接  https://www.imdb.com/title/tt8296030/
◎豆瓣评分 7.8/10 from 62 users
◎豆瓣链接 https://movie.douban.com/subject/35282951/
◎导  演 戈兰·斯托列夫斯基 Goran Stolevski
◎编  剧 戈兰·斯托列夫斯基 Goran Stolevski
◎主  演 劳米·拉佩斯 Noomi Rapace
         爱丽丝·恩格勒特 Alice Englert
       安娜玛丽亚·玛琳卡 Anamaria Marinca
       Sara Klimoska Sara Klimoska
       费利克斯·马利陶德 Félix Maritaud
       安塔·多布罗西 Arta Dobroshi
       卡里托·科塔 Carloto Cotta
       丹尼尔·科瓦切维奇 Daniel Kovacevic
       雅斯米娜·阿弗拉莫维奇 Jasmina Avramovi?
       Marija Opsenica Marija Opsenica
       Milena Nikolic Milena Nikolic
       Branislav Cubrilo
       Nikola Markovic Nikola Markovic
      卡姆卡·托西诺夫斯基 Kamka Tocinovski
       Irena Ristic


◎简  介


  焦点影业拿下超自然恐怖片You Won’t Be Alone全球发行权。该片卡司包括劳米·拉佩斯、安娜玛丽亚·玛琳卡(《火星时代》)、爱丽丝·恩格勒特([美丽生灵])、卡里托·科塔([弗兰琪])、费利克斯·马利陶德([每分钟120击])、Sara Klimoska,该片为澳大利亚导演Goran Stolevski的长片处女作。故事讲述在19世纪马其顿的一个偏僻山村,一个生活在森林的年轻女巫对人类的生活充满了好奇,她意外地杀死了一个村民,然后用这位村民的皮肤装扮成了人类,这也完全激发了女巫的好奇心,她想要装扮成不同的人类来生活。该片已在塞尔维亚杀青。


◎获奖情况

  第38届圣丹斯电影节(2022)
  评审团大奖 世界电影单元剧情片(提名)

Video
ID : 1
Format : HEVC
Format/Info : High Efficiency Video Coding
Format profile : Main 10@L5@High
HDR format : SMPTE ST 2086, HDR10 compatible
Codec ID : V_MPEGH/ISO/HEVC
Duration : 1 h 49 min
Bit rate : 24.4 Mb/s
Width : 3 104 pixels
Height : 2 156 pixels
Display aspect ratio : 1.440
Frame rate mode : Constant
Frame rate : 23.976 FPS
Color space : YUV
Chroma subsampling : 4:2:0 (Type 2)
Bit depth : 10 bits
Bits/(Pixel*Frame) : 0.152
Stream size : 18.6 GiB (97%)
Language : Macedonian
Default : Yes
Forced : No
Color range : Limited
Color primaries : BT.2020
Transfer characteristics : PQ
Matrix coefficients : BT.2020 non-constant
Mastering display color primaries : Display P3
Mastering display luminance : min: 0.0050 cd/m2, max: 1000 cd/m2
Maximum Content Light Level : 1000 cd/m2
Maximum Frame-Average Light Level : 280 cd/m2

Audio
ID : 2
Format : E-AC-3
Format/Info : Enhanced AC-3
Commercial name : Dolby Digital Plus
Codec ID : A_EAC3
Duration : 1 h 49 min
Bit rate mode : Constant
Bit rate : 640 kb/s
Channel(s) : 6 channels
Channel layout : L R C LFE Ls Rs
Sampling rate : 48.0 kHz
Frame rate : 31.250 FPS (1536 SPF)
Compression mode : Lossy
Stream size : 501 MiB (3%)
Language : Macedonian
Service kind : Complete Main
Default : Yes
Forced : No

Text
ID : 3
Format : UTF-8
Codec ID : S_TEXT/UTF8
Codec ID/Info : UTF-8 Plain Text
Duration : 1 h 42 min
Bit rate : 14 b/s
Count of elements : 464
Stream size : 11.1 KiB (0%)
Language : English
Default : Yes
Forced : No


资源速度为零或资源敏感被和谐时,推荐使用qBittorrent等下载软件,有条件的推荐115更好的下载软件!

下载地址:


游客,如果您要查看本帖隐藏内容请回复





上一篇:阿伦戴尔城堡的圣诞壁炉 (2019) 4K高清版本下载
下一篇:亡命救护车 / Ambulance (2022) 4K高清版本下载
回复

使用道具 举报

1

主题

1275

帖子

3843

积分

4K家园VIP

Rank: 9Rank: 9Rank: 9

积分
3843
发表于 2022-4-21 19:17:09 来自手机 | 显示全部楼层
边撸边过
回复 支持 反对

使用道具 举报

47

主题

1479

帖子

4255

积分

4K家园VIP

Rank: 9Rank: 9Rank: 9

积分
4255
发表于 2022-4-21 19:33:22 | 显示全部楼层
啥玩应呀
回复 支持 反对

使用道具 举报

0

主题

11

帖子

79

积分

新手上路

Rank: 1

积分
79
发表于 2022-4-21 19:41:23 | 显示全部楼层
RE: 你将不再孤单 / You Won't Be Alone (2022)4K高清版本下载 [修改]
回复 支持 反对

使用道具 举报

0

主题

8230

帖子

1万

积分

4K家园VIP

Rank: 9Rank: 9Rank: 9

积分
18830
发表于 2022-4-21 19:42:54 | 显示全部楼层
太好啦&萬分感謝版主的無私發佈分享%
回复 支持 反对

使用道具 举报

2

主题

1367

帖子

3891

积分

4K家园VIP

Rank: 9Rank: 9Rank: 9

积分
3891
发表于 2022-4-21 21:33:42 来自手机 | 显示全部楼层
回复 支持 反对

使用道具 举报

4

主题

1421

帖子

4099

积分

中级会员

Rank: 4

积分
4099
发表于 2022-4-21 23:41:41 | 显示全部楼层
呵呵。。。
回复 支持 反对

使用道具 举报

61

主题

1479

帖子

4261

积分

4K家园VIP

Rank: 9Rank: 9Rank: 9

积分
4261
发表于 2022-4-22 16:02:27 | 显示全部楼层
打酱油的人拉,回复下赚取积分
回复 支持 反对

使用道具 举报

0

主题

1

帖子

6

积分

新手上路

Rank: 1

积分
6
发表于 2022-4-26 20:29:01 | 显示全部楼层

female cam shows

female cam shows
回复 支持 反对

使用道具 举报

0

主题

1

帖子

6

积分

新手上路

Rank: 1

积分
6
发表于 2022-4-27 21:34:10 | 显示全部楼层

best pron sites

best pron sites
回复 支持 反对

使用道具 举报

您需要登录后才可以回帖 登录 | 立即注册

本版积分规则

精彩图文
Archiver|手机版|TAG|Sitemap|新帖|专题|联系我们:邮箱: 4kjia.com@gmail.com   

4k家园   ©2019