[国家地理] [4K国家地理] 希腊的代达罗斯 (2021) [2160P/MKV/938MB]

[复制链接]

2770

主题

3128

帖子

2万

积分

超级版主

Rank: 8Rank: 8

积分
26227
 楼主| 发表于 2022-4-27 20:52:47 | 显示全部楼层 |阅读模式

ДЕДАЛ.mkv_20220421_201637.111.jpg ДЕДАЛ.mkv_20220421_201643.399.jpg ДЕДАЛ.mkv_20220421_201648.439.jpg ДЕДАЛ.mkv_20220421_201653.854.jpg ДЕДАЛ.mkv_20220421_201659.519.jpg ДЕДАЛ.mkv_20220421_201712.031.jpg

电影信息
片名:希腊的代达罗斯
上映年份: 2021
国家:希腊
时间: 00:05:27
类型: 物种
导演:尼科斯·马夫罗克法洛斯

关于电影:

       代达罗斯是古希腊最伟大的发明家、艺术家和建筑师,他的名字来源于古希腊动词“daedalo”-I做艺术。短途飞越雅典。


Video
ID                             : 1
Format                         : AVC
Format/Info                    : Advanced Video Codec
Format profile                 : High@L5.2
Format settings                : CABAC / 5 Ref Frames
Format settings, CABAC         : Yes
Format settings, Reference fra : 5 frames
Codec ID                       : V_MPEG4/ISO/AVC
Duration                       : 5 min 27 s
Bit rate                       : 23.8 Mb/s
Width                          : 3 840 pixels
Height                         : 2 160 pixels
Display aspect ratio           : 16:9
Frame rate mode                : Constant
Frame rate                     : 25.000 FPS
Color space                    : YUV
Chroma subsampling             : 4:2:0
Bit depth                      : 8 bits
Scan type                      : Progressive
Bits/(Pixel*Frame)             : 0.115
Stream size                    : 929 MiB (99%)
Writing library                : x264 core 161 r10 b86ae3c
Encoding settings              : cabac=1 / ref=5 / deblock=1:0:0 / analyse=0x3:0x113 / me=hex / subme=8 / psy=1 / psy_rd=1.00:0.00 / mixed_ref=1 / me_range=16 / chroma_me=1 / trellis=2 / 8x8dct=1 / cqm=0 / deadzone=21,11 / fast_pskip=1 / chroma_qp_offset=-2 / threads=48 / lookahead_threads=8 / sliced_threads=0 / nr=0 / decimate=1 / interlaced=0 / bluray_compat=0 / stitchable=1 / constrained_intra=0 / bframes=3 / b_pyramid=2 / b_adapt=2 / b_bias=0 / direct=3 / weightb=1 / open_gop=0 / weightp=2 / keyint=infinite / keyint_min=25 / scenecut=40 / intra_refresh=0 / rc_lookahead=50 / rc=crf / mbtree=1 / crf=20.0 / qcomp=0.60 / qpmin=5 / qpmax=69 / qpstep=4 / vbv_maxrate=24200 / vbv_bufsize=66000 / crf_max=0.0 / nal_hrd=none / filler=0 / ip_ratio=1.40 / aq=1:1.00
Default                        : Yes
Forced                         : No
Color range                    : Limited
Color primaries                : BT.709
Transfer characteristics       : BT.709
Matrix coefficients            : BT.709

Audio
ID                             : 2
Format                         : AAC LC
Format/Info                    : Advanced Audio Codec Low Complexity
Codec ID                       : A_AAC-2
Duration                       : 5 min 27 s
Bit rate                       : 253 kb/s
Channel(s)                     : 2 channels
Channel layout                 : L R
Sampling rate                  : 48.0 kHz
Frame rate                     : 46.875 FPS (1024 SPF)
Compression mode               : Lossy
Stream size                    : 9.89 MiB (1%)
Default                        : Yes
Forced                         : No
下载地址:

****此区域为收费内容****    需支付 15 金币后可查看立即购买







上一篇:[4K国家地理] 挪威--北部壮观冬季仙境 (2019-2022) [2160P/MKV/1.23GB]
下一篇:[4K国家地理] 人类文明的城市之魂 (2018) [2160P/MKV/687MB]
回复

使用道具 举报

5

主题

1667

帖子

4579

积分

4K家园VIP

Rank: 9Rank: 9Rank: 9

积分
4579
发表于 2022-4-27 20:52:53 | 显示全部楼层
出4K版啦,下个看看
回复 支持 反对

使用道具 举报

0

主题

8230

帖子

1万

积分

4K家园VIP

Rank: 9Rank: 9Rank: 9

积分
18830
发表于 2022-4-27 21:41:29 | 显示全部楼层
希臘的代達羅斯4k
回复 支持 反对

使用道具 举报

2

主题

1392

帖子

4198

积分

4K家园VIP

Rank: 9Rank: 9Rank: 9

积分
4198
发表于 2022-4-28 05:45:05 | 显示全部楼层
额.....这个可以有
回复 支持 反对

使用道具 举报

2

主题

234

帖子

3077

积分

中级会员

Rank: 4

积分
3077
发表于 2022-4-28 16:15:46 | 显示全部楼层
4K出了,下来看看先
回复 支持 反对

使用道具 举报

62

主题

1496

帖子

4368

积分

4K家园VIP

Rank: 9Rank: 9Rank: 9

积分
4368
发表于 2022-4-29 18:37:16 | 显示全部楼层
试试先,好用再说
回复 支持 反对

使用道具 举报

0

主题

57

帖子

129

积分

新手上路

Rank: 1

积分
129
发表于 2022-4-29 21:08:53 | 显示全部楼层
感谢楼主分享,我默默顶一下,楼主再接再厉!
回复 支持 反对

使用道具 举报

2

主题

1166

帖子

3520

积分

4K家园VIP

Rank: 9Rank: 9Rank: 9

积分
3520
发表于 2022-4-30 11:30:07 来自手机 | 显示全部楼层
感谢楼主发帖,前排顶起
回复 支持 反对

使用道具 举报

4

主题

1623

帖子

4469

积分

4K家园VIP

Rank: 9Rank: 9Rank: 9

积分
4469
发表于 2022-4-30 13:57:10 | 显示全部楼层
占位编辑
回复 支持 反对

使用道具 举报

0

主题

7

帖子

24

积分

新手上路

Rank: 1

积分
24
发表于 2022-5-6 19:55:46 | 显示全部楼层
看范德萨大怪兽格斗风格的风格
回复 支持 反对

使用道具 举报

您需要登录后才可以回帖 登录 | 立即注册

本版积分规则

精彩图文
Archiver|手机版|TAG|Sitemap|新帖|专题|联系我们:邮箱: 4kjia.com@gmail.com   

4k家园   ©2019