[国家地理] [4K国家地理] 人类文明的城市之魂 (2018) [2160P/MKV/687MB]

[复制链接]

主题

帖子

0

积分

超级版主

Rank: 8Rank: 8

积分
0
 楼主| 发表于 2022-4-25 10:40:49 | 显示全部楼层 |阅读模式

ДУША ГОРОДА.mkv_20220421_202540.329.jpg ДУША ГОРОДА.mkv_20220421_202548.791.jpg ДУША ГОРОДА.mkv_20220421_202556.487.jpg ДУША ГОРОДА.mkv_20220421_202601.391.jpg ДУША ГОРОДА.mkv_20220421_202606.824.jpg ДУША ГОРОДА.mkv_20220421_202624.168.jpg ДУША ГОРОДА.mkv_20220421_202631.287.jpg ДУША ГОРОДА.mkv_20220421_202644.592.jpg

电影信息
标题:人类文明的城市之魂
发行年份: 2018
国家:韩国
时间: 00:04: 07
类型: 物种
导演: jansoli

关于电影:

        这个主题从文明开始。人类生命中最美的、无限的、时而残酷的、永恒的,就是人类文明的痕迹。人的生命在反复的创造和毁灭中发展。人们记录过去并为新的文化、宗教和权力创造新的城市。以人类和人类足迹为主题拍摄包含过去和现在的世界各地城市,观察和捕捉城市和市民的生活和生活,以及人们所接触到的生活方式和文化的各种差异。地球的重力。问人们发展文明的目的是什么,我试图及时确定他们的共同目标。
Video
ID                             : 1
Format                         : AVC
Format/Info                    : Advanced Video Codec
Format profile                 : High@L5.2
Format settings                : CABAC / 5 Ref Frames
Format settings, CABAC         : Yes
Format settings, Reference fra : 5 frames
Codec ID                       : V_MPEG4/ISO/AVC
Duration                       : 4 min 7 s
Bit rate                       : 23.2 Mb/s
Width                          : 3 840 pixels
Height                         : 2 160 pixels
Display aspect ratio           : 16:9
Frame rate mode                : Constant
Frame rate                     : 24.000 FPS
Color space                    : YUV
Chroma subsampling             : 4:2:0
Bit depth                      : 8 bits
Scan type                      : Progressive
Bits/(Pixel*Frame)             : 0.116
Stream size                    : 684 MiB (99%)
Writing library                : x264 core 157 r7M 303c484
Encoding settings              : cabac=1 / ref=5 / deblock=1:0:0 / analyse=0x3:0x113 / me=hex / subme=8 / psy=1 / psy_rd=1.00:0.00 / mixed_ref=1 / me_range=16 / chroma_me=1 / trellis=2 / 8x8dct=1 / cqm=0 / deadzone=21,11 / fast_pskip=1 / chroma_qp_offset=-2 / threads=48 / lookahead_threads=8 / sliced_threads=0 / nr=0 / decimate=1 / interlaced=0 / bluray_compat=0 / stitchable=1 / constrained_intra=0 / bframes=3 / b_pyramid=2 / b_adapt=2 / b_bias=0 / direct=3 / weightb=1 / open_gop=0 / weightp=2 / keyint=infinite / keyint_min=24 / scenecut=40 / intra_refresh=0 / rc_lookahead=50 / rc=crf / mbtree=1 / crf=20.0 / qcomp=0.60 / qpmin=5 / qpmax=69 / qpstep=4 / vbv_maxrate=24200 / vbv_bufsize=66000 / crf_max=0.0 / nal_hrd=none / filler=0 / ip_ratio=1.40 / aq=1:1.00
Default                        : Yes
Forced                         : No
Color range                    : Limited
Color primaries                : BT.709
Transfer characteristics       : BT.709
Matrix coefficients            : BT.709

Audio
ID                             : 2
Format                         : AAC LC
Format/Info                    : Advanced Audio Codec Low Complexity
Codec ID                       : A_AAC-2
Duration                       : 4 min 7 s
Bit rate                       : 137 kb/s
Channel(s)                     : 2 channels
Channel layout                 : L R
Sampling rate                  : 48.0 kHz
Frame rate                     : 46.875 FPS (1024 SPF)
Compression mode               : Lossy
Delay relative to video        : -83 ms
Stream size                    : 4.04 MiB (1%)
Default                        : Yes
Forced                         : No



下载地址:

****此区域为收费内容****    需支付 15 金币后可查看立即购买



.

上一篇:[4K国家地理] 希腊的代达罗斯 (2021) [2160P/MKV/938MB]
下一篇:[4K国家地理] 冬季盐湖城 (2021) [2160P/MKV/419MB]
回复

使用道具 举报

1

主题

1444

帖子

4180

积分

4K家园VIP

Rank: 9Rank: 9Rank: 9

积分
4180
发表于 2022-4-25 10:40:58 | 显示全部楼层
我擦!我要沙发!
回复 支持 反对

使用道具 举报

主题

帖子

0

积分

4K家园VIP

Rank: 9Rank: 9Rank: 9

积分
0
发表于 2022-4-25 12:58:26 | 显示全部楼层
人類文明的城市之魂4k
回复 支持 反对

使用道具 举报

53

主题

1555

帖子

4532

积分

4K家园VIP

Rank: 9Rank: 9Rank: 9

积分
4532
发表于 2022-4-25 14:46:43 | 显示全部楼层
撸过
回复 支持 反对

使用道具 举报

40

主题

1598

帖子

4584

积分

4K家园VIP

Rank: 9Rank: 9Rank: 9

积分
4584
发表于 2022-4-25 18:14:26 | 显示全部楼层
1v1飘过
回复 支持 反对

使用道具 举报

49

主题

1298

帖子

3913

积分

4K家园VIP

Rank: 9Rank: 9Rank: 9

积分
3913
发表于 2022-4-26 15:17:04 | 显示全部楼层
纯粹路过,没任何兴趣,仅仅是看在老用户份上回复一下
回复 支持 反对

使用道具 举报

2

主题

1665

帖子

4595

积分

4K家园VIP

Rank: 9Rank: 9Rank: 9

积分
4595
发表于 2022-4-26 21:03:08 来自手机 | 显示全部楼层
垃圾内容,路过为证。
回复 支持 反对

使用道具 举报

2

主题

1487

帖子

4299

积分

中级会员

Rank: 4

积分
4299
发表于 2022-11-10 03:43:25 | 显示全部楼层
好,很好,非常好!
回复 支持 反对

使用道具 举报

您需要登录后才可以回帖 登录 | 立即注册

本版积分规则

精彩图文
Archiver|手机版|TAG|Sitemap|新帖|专题|联系我们:邮箱: 4kjia.com@gmail.com   

4k家园   ©2019