[4K电影] 亡命救护车 / Ambulance (2022) 4K高清版本下载

  [复制链接]

1701

主题

1834

帖子

1万

积分

超级版主

Rank: 8Rank: 8

积分
13887
 楼主| 发表于 2022-4-22 09:55:27 | 显示全部楼层 |阅读模式
本帖最后由 最爱4K哟 于 2022-4-28 20:06 编辑

QQ图片20220422094727_副本.png

◎译  名 亡命救护车 / 救护车 / 劫命救护(台) / 十字冲锋车(港)
◎片  名 Ambulance
◎年  代 2022
◎产  地 美国
◎类  别 动作 / 犯罪
◎语  言 英语
◎上映日期 2022-04-22(中国大陆) / 2022-04-08(美国)
◎IMDb评分  6.5/10 from 12592 users
◎IMDb链接 https://www.imdb.com/title/tt4998632/
◎豆瓣评分 0/10 from 0 users
◎豆瓣链接 https://movie.douban.com/subject/35250237/
◎片  长 136分钟
◎导  演 迈克尔·贝 Michael Bay
◎编  剧 克里斯·费达克 Chris Fedak / 劳里茨·茫奇-彼得森 Laurits Munch-Petersen / 拉斯·安德烈亚斯·佩德森 Lars Andreas Pedersen
◎演  员 杰克·吉伦哈尔 Jake Gyllenhaal
       叶海亚·阿卜杜勒-迈丁 Yahya Abdul-Mateen II
       艾莎·冈萨雷斯 Eiza González
       加瑞特·迪拉胡特 Garret Dillahunt
       基尔·奥唐纳 Keir O'Donnell
       杰克逊·怀特 Jackson White
       奥利维亚·斯坦布利亚 Olivia Stambouliah
       摩西·英格拉姆 Moses Ingram
       科林·伍德尔 Colin Woodell
       塞德里克·桑德斯 Cedric Sanders
       A·马丁内斯 A Martinez
       杰西·加西亚 Jesse Garcia
       何塞·巴勃罗·坎蒂略 Jose Pablo Cantillo
       威尔 Wale
       德文·隆恩 Devan Long
       维克多·高佳卡 Victor Gojcaj
       杰米·麦克布莱德 Jamie McBride
       珍·普罗斯克 Jenn Proske
       凯利·陈 Kayli Tran
       布兰登·罗宾逊 Brendan Robinson
       安娜贝勒·格维奇 Annabelle Gurwitch
       刘慈慈 Cici Lau
       切尔西哈里斯 Chelsea Harris
       安迪·费儒 Andy Favreau
       艾恩 Ayne

◎简  介

  本片翻拍自2005年同名丹麦电影,功勋退伍士兵威尔·夏普(叶海亚·阿卜杜勒-迈丁 饰)为救妻子情急之下找到养兄弟丹尼(杰克·吉伦哈尔 饰)求助,却因此被卷入洛杉矶史上最大金额银行抢劫案。在脱身中出现的致命差池,迫使二人挟持了一辆载有一名垂危警察和一位顶尖急救专家卡姆·汤普森(艾莎·冈萨雷斯 饰)的救护车。在这场持久的高速追逐中,威尔和丹尼极力躲避全城警察的大规模搜捕、保证人质的生命安全、努力不对兄弟拔刀相向,同时完成这场洛杉矶有史以来最疯狂且惊险刺激的逃脱。
Video
ID : 1
Format : HEVC
Format/Info : High Efficiency Video Coding
Format profile : Main 10@L5@High
HDR format : Dolby Vision, Version 1.0, dvhe.05.06, BL+RPU
Codec ID : V_MPEGH/ISO/HEVC
Duration : 2 h 16 min
Bit rate : 14.3 Mb/s
Width : 3 840 pixels
Height : 1 596 pixels
Display aspect ratio : 2.40:1
Frame rate mode : Constant
Frame rate : 23.976 (24000/1001/189150) FPS
Color space : YUV
Chroma subsampling : 4:2:0
Bit depth : 10 bits
Bits/(Pixel*Frame) : 0.097
Stream size : 13.6 GiB (95%)
Default : Yes
Forced : No

Audio
ID : 2
Format : E-AC-3 JOC
Format/Info : Enhanced AC-3 with Joint Object Coding
Commercial name : Dolby Digital Plus with Dolby Atmos
Codec ID : A_EAC3
Duration : 2 h 16 min
Bit rate mode : Constant
Bit rate : 768 kb/s
Channel(s) : 6 channels
Channel layout : L R C LFE Ls Rs
Sampling rate : 48.0 kHz
Frame rate : 31.250 FPS (1536 SPF)
Compression mode : Lossy
Stream size : 749 MiB (5%)
Language : English
Service kind : Complete Main
Default : Yes
Forced : No
Complexity index : 16
Number of dynamic objects : 15
Bed channel count : 1 channel
Bed channel configuration : LFE

Text #1
ID : 3
Format : UTF-8
Codec ID : S_TEXT/UTF8
Codec ID/Info : UTF-8 Plain Text
Duration : 2 h 11 min
Bit rate : 87 b/s
Count of elements : 2783
Stream size : 84.2 KiB (0%)
Language : English
Default : Yes
Forced : No

Text #2
ID : 4
Format : UTF-8
Codec ID : S_TEXT/UTF8
Codec ID/Info : UTF-8 Plain Text
Duration : 2 h 16 min
Bit rate : 94 b/s
Count of elements : 3072
Stream size : 94.5 KiB (0%)
Title : SDH
Language : English
Default : No
Forced : No

资源速度为零或资源敏感被和谐时,推荐使用qBittorrent等下载软件,有条件的推荐115更好的下载软件!

下载地址:

游客,如果您要查看本帖隐藏内容请回复

游客,如果您要查看本帖隐藏内容请回复

游客,如果您要查看本帖隐藏内容请回复

游客,如果您要查看本帖隐藏内容请回复

游客,如果您要查看本帖隐藏内容请回复

游客,如果您要查看本帖隐藏内容请回复

游客,如果您要查看本帖隐藏内容请回复





上一篇:你将不再孤单 / You Won't Be Alone (2022)4K高清版本下载
下一篇:女牛仔之歌 / A Cowgirl's Song (2022) 4K高清版本下载
回复

使用道具 举报

2

主题

1578

帖子

4580

积分

4K家园VIP

Rank: 9Rank: 9Rank: 9

积分
4580
发表于 2022-4-22 09:55:32 来自手机 | 显示全部楼层
试试先,好用再说
回复 支持 反对

使用道具 举报

0

主题

3

帖子

16

积分

新手上路

Rank: 1

积分
16
发表于 2022-4-22 10:21:42 | 显示全部楼层
22222222222222
回复 支持 反对

使用道具 举报

1

主题

1342

帖子

4044

积分

4K家园VIP

Rank: 9Rank: 9Rank: 9

积分
4044
发表于 2022-4-22 11:36:03 来自手机 | 显示全部楼层
这么强,支持楼主,佩服
回复 支持 反对

使用道具 举报

47

主题

1479

帖子

4255

积分

4K家园VIP

Rank: 9Rank: 9Rank: 9

积分
4255
发表于 2022-4-22 11:44:52 | 显示全部楼层
4K家园资源不错,前排支持
回复 支持 反对

使用道具 举报

0

主题

27

帖子

3113

积分

中级会员

Rank: 4

积分
3113
发表于 2022-4-22 12:01:49 | 显示全部楼层
谢谢分享
回复

使用道具 举报

44

主题

1482

帖子

4290

积分

4K家园VIP

Rank: 9Rank: 9Rank: 9

积分
4290
发表于 2022-4-22 12:02:42 | 显示全部楼层
秀起来~
回复 支持 反对

使用道具 举报

2

主题

1176

帖子

3548

积分

4K家园VIP

Rank: 9Rank: 9Rank: 9

积分
3548
发表于 2022-4-22 12:14:31 | 显示全部楼层
确实不错,顶先
回复 支持 反对

使用道具 举报

0

主题

9

帖子

1325

积分

注册会员

Rank: 2

积分
1325
发表于 2022-4-22 13:53:23 | 显示全部楼层
这么强,支持楼主,佩服
回复 支持 反对

使用道具 举报

0

主题

1

帖子

10

积分

新手上路

Rank: 1

积分
10
发表于 2022-4-22 14:15:20 | 显示全部楼层
dgfbgdbefbe
回复 支持 反对

使用道具 举报

您需要登录后才可以回帖 登录 | 立即注册

本版积分规则

精彩图文
Archiver|手机版|TAG|Sitemap|新帖|专题|联系我们:邮箱: 4kjia.com@gmail.com   

4k家园   ©2019