[4K电影] 女牛仔之歌 / A Cowgirl's Song (2022) 4K高清版本下载

[复制链接]

主题

帖子

0

积分

超级版主

Rank: 8Rank: 8

积分
0
 楼主| 发表于 2022-4-22 19:57:28 | 显示全部楼层 |阅读模式

QQ图片20220422195125_副本.png

◎译  名 女牛仔之歌 / 牛仔歌,性别女
◎片  名 A Cowgirl's Song
◎年  代 2022
◎产  地 美国
◎类  别 剧情 / 音乐
◎语  言 英语
◎上映日期 2022-04-22(美国)
◎IMDb链接  https://www.imdb.com/title/tt14771622/
◎豆瓣链接 https://movie.douban.com/subject/35801821/
◎编  剧 提姆·阿姆斯特朗
◎演  员 切瑞·拉德
                   萨凡娜·李·梅
                   达西·林恩·法默

◎简  介

  一位有抱负的少年歌手去和她曾是乡村音乐传奇人物的祖母住在一起,但在五年前丈夫去世后,她陷入了困境。
Video
ID : 1
Format : HEVC
Format/Info : High Efficiency Video Coding
Format profile : Main 10@L5@High
Codec ID : V_MPEGH/ISO/HEVC
Duration : 1 h 32 min
Bit rate : 11.9 Mb/s
Width : 3 838 pixels
Height : 2 022 pixels
Display aspect ratio : 1.898
Frame rate mode : Constant
Frame rate : 23.976 FPS
Color space : YUV
Chroma subsampling : 4:2:0
Bit depth : 10 bits
Bits/(Pixel*Frame) : 0.064
Stream size : 7.68 GiB (97%)
Language : English
Default : Yes
Forced : No
Color range : Limited
Color primaries : BT.709
Transfer characteristics : BT.709
Matrix coefficients : BT.709

Audio
ID : 2
Format : AC-3
Format/Info : Audio Coding 3
Commercial name : Dolby Digital
Codec ID : A_AC3
Duration : 1 h 32 min
Bit rate mode : Constant
Bit rate : 384 kb/s
Channel(s) : 6 channels
Channel layout : L R C LFE Ls Rs
Sampling rate : 48.0 kHz
Frame rate : 31.250 FPS (1536 SPF)
Compression mode : Lossy
Stream size : 254 MiB (3%)
Language : English
Service kind : Complete Main
Default : Yes
Forced : No

Text #1
ID : 3
Format : UTF-8
Codec ID : S_TEXT/UTF8
Codec ID/Info : UTF-8 Plain Text
Duration : 1 h 32 min
Bit rate : 82 b/s
Count of elements : 1556
Stream size : 55.7 KiB (0%)
Title : SDH
Language : English
Default : No
Forced : No

Text #2
ID : 4
Format : UTF-8
Codec ID : S_TEXT/UTF8
Codec ID/Info : UTF-8 Plain Text
Duration : 1 h 32 min
Bit rate : 77 b/s
Count of elements : 1440
Stream size : 52.3 KiB (0%)
Language : English
Default : No
Forced : No
资源速度为零或资源敏感被和谐时,推荐使用qBittorrent等下载软件,有条件的推荐115更好的下载软件!

下载地址:



游客,如果您要查看本帖隐藏内容请回复





上一篇:亡命救护车 / Ambulance (2022) 4K高清版本下载
下一篇:你所知道的邪恶 / The Devil You Know (2022) 4K高清版本下载
回复

使用道具 举报

0

主题

1749

帖子

4799

积分

4K家园VIP

Rank: 9Rank: 9Rank: 9

积分
4799
发表于 2022-4-22 19:57:33 | 显示全部楼层
发发呆,回回帖,工作结束~
回复 支持 反对

使用道具 举报

5

主题

1739

帖子

4823

积分

4K家园VIP

Rank: 9Rank: 9Rank: 9

积分
4823
发表于 2022-4-22 19:57:33 | 显示全部楼层
试试看吧
回复 支持 反对

使用道具 举报

3

主题

1838

帖子

5062

积分

高级会员

Rank: 3Rank: 3

积分
5062
发表于 2022-4-22 20:14:15 | 显示全部楼层
非常好,顶一下
回复 支持 反对

使用道具 举报

1

主题

1409

帖子

4245

积分

4K家园VIP

Rank: 9Rank: 9Rank: 9

积分
4245
发表于 2022-4-22 20:25:07 | 显示全部楼层
众里寻他千百度,蓦然回首在这里!
回复 支持 反对

使用道具 举报

1

主题

1465

帖子

4211

积分

4K家园VIP

Rank: 9Rank: 9Rank: 9

积分
4211
发表于 2022-4-22 20:41:04 来自手机 | 显示全部楼层
回复 支持 反对

使用道具 举报

主题

帖子

6

积分

新手上路

Rank: 1

积分
6
发表于 2022-4-28 09:27:52 | 显示全部楼层

free live home cam

free live home cam
回复 支持 反对

使用道具 举报

6

主题

1273

帖子

3845

积分

4K家园VIP

Rank: 9Rank: 9Rank: 9

积分
3845
发表于 2022-11-10 13:28:28 | 显示全部楼层
支持下楼主,顶一个
回复 支持 反对

使用道具 举报

0

主题

10

帖子

23

积分

新手上路

Rank: 1

积分
23
发表于 昨天 16:57 | 显示全部楼层
好好后
回复

使用道具 举报

您需要登录后才可以回帖 登录 | 立即注册

本版积分规则

精彩图文
Archiver|手机版|TAG|Sitemap|新帖|专题|联系我们:邮箱: 4kjia.com@gmail.com   

4k家园   ©2019