[4K电影] 你所知道的邪恶 / The Devil You Know (2022) 4K高清版本下载

[复制链接]

1735

主题

1868

帖子

1万

积分

超级版主

Rank: 8Rank: 8

积分
14105
 楼主| 发表于 2022-4-22 20:08:24 | 显示全部楼层 |阅读模式

QQ图片20220422200737_副本.png

◎译  名 你所知道的邪恶
◎片  名 The Devil You Know
◎年  代 2022
◎产  地 美国
◎类  别 惊悚
◎语  言 英语
◎上映日期 2022-04-01
◎IMDb链接  https://www.imdb.com/title/tt14591594/
◎豆瓣链接 https://movie.douban.com/subject/35807377/
◎导  演 查尔斯·默里 Charles Murray
◎编  剧 查尔斯·默里 Charles Murray
◎演  员 迈克尔·伊雷 Michael Ealy
          欧玛·艾普斯 Omar Epps
       迈克尔·比奇 Michael Beach
Video
ID : 1
Format : HEVC
Format/Info : High Efficiency Video Coding
Format profile : Main 10@L5@High
HDR format : SMPTE ST 2086, HDR10 compatible
Codec ID : V_MPEGH/ISO/HEVC
Duration : 1 h 56 min
Bit rate : 14.5 Mb/s
Width : 3 832 pixels
Height : 2 064 pixels
Display aspect ratio : 1.85:1
Frame rate mode : Constant
Frame rate : 23.976 FPS
Color space : YUV
Chroma subsampling : 4:2:0 (Type 2)
Bit depth : 10 bits
Bits/(Pixel*Frame) : 0.076
Stream size : 11.8 GiB (97%)
Default : Yes
Forced : No
Color range : Limited
Color primaries : BT.2020
Transfer characteristics : PQ
Matrix coefficients : BT.2020 non-constant
Mastering display color primaries : Display P3
Mastering display luminance : min: 0.0001 cd/m2, max: 1000 cd/m2
Maximum Content Light Level : 3929 cd/m2
Maximum Frame-Average Light Level : 15 cd/m2

Audio
ID : 2
Format : E-AC-3
Format/Info : Enhanced AC-3
Commercial name : Dolby Digital Plus
Codec ID : A_EAC3
Duration : 1 h 56 min
Bit rate mode : Constant
Bit rate : 384 kb/s
Channel(s) : 6 channels
Channel layout : L R C LFE Ls Rs
Sampling rate : 48.0 kHz
Frame rate : 31.250 FPS (1536 SPF)
Compression mode : Lossy
Stream size : 319 MiB (3%)
Language : English
Service kind : Complete Main
Default : Yes
Forced : No

Text
ID : 3
Format : UTF-8
Codec ID : S_TEXT/UTF8
Codec ID/Info : UTF-8 Plain Text
Duration : 1 h 49 min
Bit rate : 68 b/s
Count of elements : 1586
Stream size : 54.9 KiB (0%)
Language : English
Default : Yes
Forced : No
资源速度为零或资源敏感被和谐时,推荐使用qBittorrent等下载软件,有条件的推荐115更好的下载软件!

下载地址:



游客,如果您要查看本帖隐藏内容请回复

游客,如果您要查看本帖隐藏内容请回复





上一篇:女牛仔之歌 / A Cowgirl's Song (2022) 4K高清版本下载
下一篇:北极熊(内封简繁中字) / Polar Bear (2022) 4K高清版本下载
回复

使用道具 举报

40

主题

1496

帖子

4292

积分

4K家园VIP

Rank: 9Rank: 9Rank: 9

积分
4292
发表于 2022-4-22 20:09:01 | 显示全部楼层
报告!别开枪,我就是路过来看看的。。。
回复 支持 反对

使用道具 举报

0

主题

8230

帖子

1万

积分

4K家园VIP

Rank: 9Rank: 9Rank: 9

积分
18830
发表于 2022-4-22 20:38:47 | 显示全部楼层
太好啦&萬分感謝版主的無私發佈分享%
回复 支持 反对

使用道具 举报

3

主题

1344

帖子

4056

积分

4K家园VIP

Rank: 9Rank: 9Rank: 9

积分
4056
发表于 2022-4-25 15:17:25 | 显示全部楼层
楼下的接上
回复 支持 反对

使用道具 举报

3

主题

1293

帖子

3889

积分

4K家园VIP

Rank: 9Rank: 9Rank: 9

积分
3889
发表于 2022-4-26 17:34:20 | 显示全部楼层
向楼主学习
回复 支持 反对

使用道具 举报

0

主题

1

帖子

6

积分

新手上路

Rank: 1

积分
6
发表于 2022-4-27 07:57:05 | 显示全部楼层

free cam websites

free cam websites
回复 支持 反对

使用道具 举报

51

主题

1400

帖子

4032

积分

4K家园VIP

Rank: 9Rank: 9Rank: 9

积分
4032
发表于 2022-4-27 19:19:43 | 显示全部楼层
鄙视楼下的顶帖没我快,哈哈
回复 支持 反对

使用道具 举报

1

主题

1309

帖子

3943

积分

4K家园VIP

Rank: 9Rank: 9Rank: 9

积分
3943
发表于 2022-4-29 10:32:19 | 显示全部楼层
好帖必须得顶起
回复 支持 反对

使用道具 举报

您需要登录后才可以回帖 登录 | 立即注册

本版积分规则

精彩图文
Archiver|手机版|TAG|Sitemap|新帖|专题|联系我们:邮箱: 4kjia.com@gmail.com   

4k家园   ©2019