[4K电影] 神秘海域(附字幕) / Uncharted (2022) 4K高清版本下载

  [复制链接]

1735

主题

1868

帖子

1万

积分

超级版主

Rank: 8Rank: 8

积分
14105
 楼主| 发表于 2022-4-23 10:12:48 | 显示全部楼层 |阅读模式
本帖最后由 没完没了 于 2022-5-7 11:35 编辑

QQ图片20220423092200_副本.png

◎译  名 神秘海域/秘境探险(港/台)/神秘海域:德雷克船长的宝藏/Uncharted: Drake's Fortune
◎片  名 Uncharted
◎年  代 2022
◎产  地 美国
◎类  别 动作/冒险
◎语  言 英语/西班牙语
◎上映日期 2022-03-14(中国大陆)/2022-02-18(美国)
◎IMDb评分  6.4/10 from 95768 users
◎IMDb链接  https://www.imdb.com/title/tt1464335/
◎豆瓣评分 6.3/10 from 65881 users
◎豆瓣链接 https://movie.douban.com/subject/3822687/
◎导  演 鲁本·弗雷斯彻 Ruben Fleischer
◎编  剧 雷夫·贾金斯 Rafe Judkins / 阿特·马库姆 Art Marcum / 马特·霍洛维 Matt Holloway
◎主  演 汤姆·赫兰德 Tom Holland
       马克·沃尔伯格 Mark Wahlberg
       索菲娅·阿里 Sophia Ali
       塔蒂·加布里埃 Tati Gabrielle
       安东尼奥·班德拉斯 Antonio Banderas
       史蒂芬·威丁顿 Steven Waddington
       乔治娅·古德曼 Georgia Goodman
       迪尔梅德·默塔 Diarmaid Murtagh
       约瑟夫·巴德拉玛 Joseph Balderrama
       阿拉娜·博登 Alana Boden
       罗伯特?马瑟 Robert Maaser
       埃斯金迪尔·特斯法 Eskindir Tesfay
       曼纽尔·德·巴拉斯 Manuel de Blas
       帕特丽夏·梅登 Patricia Meeden
       诺兰·诺斯 Nolan North
       吉米·哈特 Jimmy Hart
       皮鲁·埃斯贝克 Pilou Asb?k
       莎拉·佩特里克 Sarah Petrick
       平吉·莫里 Pingi Moli
       蒂尔南·琼斯 Tiernan Jones
       鲁迪·潘科 Rudy Pankow
       乔纳森·法伊拉 Jonathan Failla
       安东尼·托马斯 Anthony Thomas
       彼得·锡顿-克拉克  Peter Seaton-Clark


◎简  介


  足智多谋的内森·德雷克(汤姆·赫兰德 饰)和经验丰富的寻宝者维克多·苏利文(马克·沃尔伯格 饰)组成搭档,追寻费迪南·麦哲伦500年前遗失的宝藏。一开始,这似乎只是个简单的寻宝工作,但很快演变成了一场惊险刺激、横跨全球的竞赛。他们必须赶在冷酷无情的蒙卡达(安东尼奥·班德拉斯 饰)之前寻得宝藏。蒙卡达坚信他和他的家族才是宝藏的正当继承人。若内森和苏利文能破译线索,解开这世界上最古老的谜团,他们便能找到价值50亿美元的宝藏,甚至还可能找到内森失踪已久的哥哥……但首先,他们必须学会通力合作。

Video
ID                             : 1
Format                         : HEVC
Format/Info                    : High Efficiency Video Coding
Format profile                 : Main 10@L5@High
Codec ID                       : V_MPEGH/ISO/HEVC
Duration                       : 1 h 56 min
Bit rate                       : 14.3 Mb/s
Width                          : 3 840 pixels
Height                         : 1 580 pixels
Display aspect ratio           : 2.40:1
Frame rate mode                : Constant
Frame rate                     : 23.976 (24000/1001) FPS
Color space                    : YUV
Chroma subsampling             : 4:2:0
Bit depth                      : 10 bits
Bits/(Pixel*Frame)             : 0.098
Stream size                    : 11.6 GiB (95%)
Language                       : English
Default                        : Yes
Forced                         : No

Audio
ID                             : 2
Format                         : AC-3
Format/Info                    : Audio Coding 3
Commercial name                : Dolby Digital
Codec ID                       : A_AC3
Duration                       : 1 h 56 min
Bit rate mode                  : Constant
Bit rate                       : 384 kb/s
Channel(s)                     : 6 channels
Channel layout                 : L R C LFE Ls Rs
Sampling rate                  : 48.0 kHz
Frame rate                     : 31.250 FPS (1536 SPF)
Compression mode               : Lossy
Stream size                    : 319 MiB (3%)
Language                       : English
Service kind                   : Complete Main
Default                        : Yes
Forced                         : No

Text #1
ID                             : 3
Format                         : UTF-8
Codec ID                       : S_TEXT/UTF8
Codec ID/Info                  : UTF-8 Plain Text
Title                          : Forced
Language                       : English
Default                        : Yes
Forced                         : Yes

Text #2
ID                             : 4
Format                         : UTF-8
Codec ID                       : S_TEXT/UTF8
Codec ID/Info                  : UTF-8 Plain Text
Title                          : SDH
Language                       : English
Default                        : No
Forced                         : No

Text #3
ID                             : 5
Format                         : UTF-8
Codec ID                       : S_TEXT/UTF8
Codec ID/Info                  : UTF-8 Plain Text
Language                       : English
Default                        : No
Forced                         : No

Text #4
ID                             : 6
Format                         : UTF-8
Codec ID                       : S_TEXT/UTF8
Codec ID/Info                  : UTF-8 Plain Text
Language                       : English
Default                        : No
Forced                         : No

资源速度为零或资源敏感被和谐时,推荐使用qBittorrent等下载软件,有条件的推荐115更好的下载软件!

下载地址:

神秘海域 (内嵌简繁中字)(22.39GB)Uncharted.2022.2160p.MA.WEB-DL.x265.10bit.SDR.DTS-HD.MA.5.1-SWTYBLZ
游客,如果您要查看本帖隐藏内容请回复

神秘海域 (内嵌简繁中字)(22.20GB)Uncharted.2022.2160p.MA.WEB-DL.x265.10bit.HDR.DTS-HD.MA.5.1-SWTYBLZ
游客,如果您要查看本帖隐藏内容请回复

****此区域为收费内容****    需支付 9 金币后可查看立即购买

****此区域为收费内容****    需支付 9 金币后可查看立即购买

游客,如果您要查看本帖隐藏内容请回复

游客,如果您要查看本帖隐藏内容请回复

****此区域为收费内容****    需支付 9 金币后可查看立即购买

****此区域为收费内容****    需支付 9 金币后可查看立即购买

****此区域为收费内容****    需支付 9 金币后可查看立即购买

****此区域为收费内容****    需支付 9 金币后可查看立即购买

****此区域为收费内容****    需支付 9 金币后可查看立即购买

****此区域为收费内容****    需支付 9 金币后可查看立即购买



外挂字幕文件下载(不喜勿下)
游客,如果您要查看本帖隐藏内容请回复

游客,如果您要查看本帖隐藏内容请回复







上一篇:探险家:最后的特普伊山(内封中字)(2022) 4K高清版本下载
下一篇:最大的小小农场:回归 (内封简繁中字) (2022) 4K高清版本下载
回复

使用道具 举报

0

主题

1183

帖子

3563

积分

4K家园VIP

Rank: 9Rank: 9Rank: 9

积分
3563
发表于 2022-4-23 10:12:52 来自手机 | 显示全部楼层
我只是看看啊,不说话
回复 支持 反对

使用道具 举报

0

主题

20

帖子

139

积分

4K家园VIP

Rank: 9Rank: 9Rank: 9

积分
139
发表于 2022-4-23 10:27:35 | 显示全部楼层
谢谢楼主
回复

使用道具 举报

0

主题

8230

帖子

1万

积分

4K家园VIP

Rank: 9Rank: 9Rank: 9

积分
18830
发表于 2022-4-23 10:33:40 | 显示全部楼层
太好啦&萬分感謝版主的無私發佈分享%
回复 支持 反对

使用道具 举报

0

主题

6

帖子

50

积分

新手上路

Rank: 1

积分
50
发表于 2022-4-23 11:26:16 | 显示全部楼层
本年度比较期待的大片
回复 支持 反对

使用道具 举报

0

主题

4

帖子

31

积分

新手上路

Rank: 1

积分
31
发表于 2022-4-23 11:53:19 | 显示全部楼层
本年度比较期待的大片
回复 支持 反对

使用道具 举报

0

主题

2

帖子

16

积分

新手上路

Rank: 1

积分
16
发表于 2022-4-23 12:16:32 | 显示全部楼层
666666666666
回复 支持 反对

使用道具 举报

0

主题

4

帖子

34

积分

新手上路

Rank: 1

积分
34
发表于 2022-4-23 12:40:23 | 显示全部楼层
感谢分享  谢谢
回复 支持 反对

使用道具 举报

0

主题

346

帖子

2121

积分

注册会员

Rank: 2

积分
2121
发表于 2022-4-23 12:44:32 | 显示全部楼层
等字幕来了在下
回复 支持 反对

使用道具 举报

0

主题

1

帖子

40

积分

4K家园VIP

Rank: 9Rank: 9Rank: 9

积分
40
发表于 2022-4-23 13:32:17 | 显示全部楼层
我只是看看啊,不说话
回复 支持 反对

使用道具 举报

您需要登录后才可以回帖 登录 | 立即注册

本版积分规则

精彩图文
Archiver|手机版|TAG|Sitemap|新帖|专题|联系我们:邮箱: 4kjia.com@gmail.com   

4k家园   ©2019