[4K电影] 最大的小小农场:回归 (内封简繁中字) (2022) 4K高清版本下载

[复制链接]

1733

主题

1866

帖子

1万

积分

超级版主

Rank: 8Rank: 8

积分
14095
 楼主| 发表于 2022-4-23 10:52:58 | 显示全部楼层 |阅读模式
QQ图片20220423103653_副本.png

◎译  名 最大的小小农场:回归/ 我家有个开心农场:重返伊甸园(台) / 最大的小小农场:后续
◎片  名 The Biggest Little Farm: The Return
◎年  代 2022
◎产  地 美国
◎类  别 剧情 / 纪录片
◎语  言 英语
◎上映日期 2022-04-22(美国网络)
◎IMDb评分  7.7/10 from 10 users
◎IMDb链接  https://www.imdb.com/title/tt17048514
◎豆瓣评分 0/10 from 0 users
◎豆瓣链接 https://movie.douban.com/subject/35859560/
◎片  长 29分钟
◎导  演 约翰·切斯特
◎演  员 约翰·切斯特
                   茉莉·切斯特
                   博登·切斯特


◎简  介

        跟随约翰与茉莉长达10年时间的不懈旅程,见证将土地变成农场的神奇之旅。

Video
ID : 1
Format : HEVC
Format/Info : High Efficiency Video Coding
Format profile : Main 10@L5@High
HDR format : SMPTE ST 2086, HDR10 compatible
Codec ID : V_MPEGH/ISO/HEVC
Duration : 28 min 55 s
Bit rate : 16.3 Mb/s
Width : 3 840 pixels
Height : 2 160 pixels
Display aspect ratio : 16:9
Frame rate mode : Constant
Frame rate : 23.976 (24000/1001) FPS
Color space : YUV
Chroma subsampling : 4:2:0
Bit depth : 10 bits
Bits/(Pixel*Frame) : 0.082
Stream size : 3.29 GiB (98%)
Language : English
Default : Yes
Forced : No
Color range : Limited
Color primaries : BT.2020
Transfer characteristics : PQ
Matrix coefficients : BT.2020 non-constant
Mastering display color primaries : Display P3
Mastering display luminance : min: 0.0010 cd/m2, max: 1000 cd/m2

Audio
ID : 2
Format : E-AC-3
Format/Info : Enhanced AC-3
Commercial name : Dolby Digital Plus
Codec ID : A_EAC3
Duration : 28 min 55 s
Bit rate mode : Constant
Bit rate : 256 kb/s
Channel(s) : 6 channels
Channel layout : L R C LFE Ls Rs
Sampling rate : 48.0 kHz
Frame rate : 31.250 FPS (1536 SPF)
Compression mode : Lossy
Stream size : 53.0 MiB (2%)
Language : English
Service kind : Complete Main
Default : Yes
Forced : No

Text #1
ID : 3
Format : UTF-8
Codec ID : S_TEXT/UTF8
Codec ID/Info : UTF-8 Plain Text
Duration : 28 min 20 s
Bit rate : 61 b/s
Count of elements : 381
Stream size : 12.8 KiB (0%)
Title : SDH
Language : English
Default : No
Forced : No

Text #2
ID : 4
Format : UTF-8
Codec ID : S_TEXT/UTF8
Codec ID/Info : UTF-8 Plain Text
Duration : 27 min 57 s
Bit rate : 54 b/s
Count of elements : 334
Stream size : 11.1 KiB (0%)
Language : English
Default : No
Forced : No

Text #3
ID : 5
Format : UTF-8
Codec ID : S_TEXT/UTF8
Codec ID/Info : UTF-8 Plain Text
Duration : 28 min 25 s
Bit rate : 49 b/s
Count of elements : 333
Stream size : 10.4 KiB (0%)
Language : Czech
Default : No
Forced : No

Text #4
ID : 6
Format : UTF-8
Codec ID : S_TEXT/UTF8
Codec ID/Info : UTF-8 Plain Text
Duration : 28 min 25 s
Bit rate : 52 b/s
Count of elements : 334
Stream size : 10.9 KiB (0%)
Language : Danish
Default : No
Forced : No

Text #5
ID : 7
Format : UTF-8
Codec ID : S_TEXT/UTF8
Codec ID/Info : UTF-8 Plain Text
Duration : 28 min 25 s
Bit rate : 55 b/s
Count of elements : 330
Stream size : 11.6 KiB (0%)
Language : German
Default : No
Forced : No

Text #6
ID : 8
Format : UTF-8
Codec ID : S_TEXT/UTF8
Codec ID/Info : UTF-8 Plain Text
Duration : 28 min 25 s
Bit rate : 87 b/s
Count of elements : 328
Stream size : 18.3 KiB (0%)
Language : Greek
Default : No
Forced : No

Text #24
ID : 26
Format : UTF-8
Codec ID : S_TEXT/UTF8
Codec ID/Info : UTF-8 Plain Text
Duration : 28 min 25 s
Bit rate : 44 b/s
Count of elements : 336
Stream size : 9.28 KiB (0%)
Title : 中文-香港
Language : 中文
Default : No
Forced : No

Text #25
ID : 27
Format : UTF-8
Codec ID : S_TEXT/UTF8
Codec ID/Info : UTF-8 Plain Text
Duration : 28 min 25 s
Bit rate : 43 b/s
Count of elements : 336
Stream size : 9.04 KiB (0%)
Title : Simplified
Language : 中文-简体
Default : No
Forced : No

Text #26
ID : 28
Format : UTF-8
Codec ID : S_TEXT/UTF8
Codec ID/Info : UTF-8 Plain Text
Duration : 28 min 25 s
Bit rate : 44 b/s
Count of elements : 336
Stream size : 9.22 KiB (0%)
Title : 中文-繁体
Language : 中文
Default : No
Forced : No


资源速度为零或资源敏感被和谐时,推荐使用qBittorrent等下载软件,有条件的推荐115更好的下载软件!

下载地址:


****此区域为收费内容****    需支付 9 金币后可查看立即购买





上一篇:神秘海域(附字幕) / Uncharted (2022) 4K高清版本下载
下一篇:暗夜逐仇 / Run All Night (2015) 4K高清版本下载
回复

使用道具 举报

3

主题

1412

帖子

4062

积分

4K家园VIP

Rank: 9Rank: 9Rank: 9

积分
4062
发表于 2022-4-23 10:53:02 | 显示全部楼层
非常好,顶一下
回复 支持 反对

使用道具 举报

62

主题

1496

帖子

4368

积分

4K家园VIP

Rank: 9Rank: 9Rank: 9

积分
4368
发表于 2022-4-23 10:54:21 | 显示全部楼层
垃圾
回复 支持 反对

使用道具 举报

1

主题

1747

帖子

4849

积分

4K家园VIP

Rank: 9Rank: 9Rank: 9

积分
4849
发表于 2022-4-23 20:45:55 | 显示全部楼层
撸过
回复 支持 反对

使用道具 举报

47

主题

1474

帖子

4216

积分

4K家园VIP

Rank: 9Rank: 9Rank: 9

积分
4216
发表于 2022-4-23 21:33:06 | 显示全部楼层
我是个凑数的。。。
回复 支持 反对

使用道具 举报

0

主题

65

帖子

472

积分

新手上路

Rank: 1

积分
472
发表于 2022-4-24 15:45:24 | 显示全部楼层
  楼主发贴辛苦了,谢谢楼主的精彩分享!
回复 支持 反对

使用道具 举报

39

主题

1527

帖子

4375

积分

4K家园VIP

Rank: 9Rank: 9Rank: 9

积分
4375
发表于 2022-4-24 17:13:37 | 显示全部楼层
体验下4K版的
回复 支持 反对

使用道具 举报

您需要登录后才可以回帖 登录 | 立即注册

本版积分规则

精彩图文
Archiver|手机版|TAG|Sitemap|新帖|专题|联系我们:邮箱: 4kjia.com@gmail.com   

4k家园   ©2019