初创玩家(内嵌中字)WeCrashed (2022)/第一季全8集/4K高清版本下载

[复制链接]

126

主题

145

帖子

1412

积分

版主

Rank: 7Rank: 7Rank: 7

积分
1412
 楼主| 发表于 2022-4-24 10:53:21 | 显示全部楼层 |阅读模式
p2868818855.webp_副本.jpg

◎译  名 初创玩家 / 新创玩家 / WeWork兴衰史
◎片  名 WeCrashed
◎年  代 2022
◎产  地 美国
◎类  别 剧情
◎语  言 英语
◎上映日期 2022-03-18(美国)
◎IMDb评分  7.8/10 from 1751 users
◎IMDb链接  https://www.imdb.com/title/tt12005128/
◎豆瓣评分 7.4/10 from 2012 users
◎豆瓣链接 https://movie.douban.com/subject/34984509/
◎集  数 8
◎片  长 50-60分钟
◎导  演 格伦·费卡拉 Glenn Ficarra
      约翰·里夸 John Requa
◎编  剧 李·艾森伯格 Lee Eisenberg
◎演  员 杰瑞德·莱托 Jared Leto
       安妮·海瑟薇 Anne Hathaway
       凯尔·马文 Kyle Marvin
       O·T·法格本 O.T. Fagbenle
       亚美莉卡·费雷拉 America Ferrera
       克里克特·布朗 Cricket Brown
       西奥·斯托克曼 Theo Stockman
       安德鲁·伯纳普 Andrew Burnap
       彼得·雅各布森 Peter Jacobson
       凯利·奥科 Kelly AuCoin
       马克斯·凯塞拉 Max Casella
       阿杰·奈杜 Ajay Naidu
       亚历山德拉·坦普勒 Alexandra Templer
       Dale Place Dale Place
       约旦·布里奇斯 Jordan Bridges
       威廉·罗格斯戴尔 William Ragsdale
       凯特·詹宁斯·格兰特 Kate Jennings Grant
       约翰·安德森 John Anderson
       莱曼·陈 Lyman Chen
       克里斯·博兰 Chris Bolan


◎简  介


  本剧改编自6集播客《WeCrashed: The Rise and Fall of WeWork》,由Lee Eisenberg和Drew Crevello编剧,讲述共享办公室公司WeWork的崛起以及衰落。在不到十年内,WeWork从一个共享办公空间发展成为一个470亿美元的全球品牌。然后又在短短的一年之内,损失了400亿美元。到底发生了什么事?

Video
ID : 1
Format : HEVC
Format/Info : High Efficiency Video Coding
Format profile : Main 10@L5@High
HDR format : Dolby Vision, Version 1.0, dvhe.05.06, BL+RPU
Codec ID : dvhe
Codec ID/Info : High Efficiency Video Coding with Dolby Vision
Duration : 1 h 1 min
Bit rate : 24.9 Mb/s
Width : 3 840 pixels
Height : 1 920 pixels
Display aspect ratio : 2.000
Frame rate mode : Constant
Frame rate : 23.976 (24000/1001) FPS
Color space : YUV
Chroma subsampling : 4:2:0
Bit depth : 10 bits
Bits/(Pixel*Frame) : 0.141
Stream size : 10.7 GiB (97%)
Default : Yes
Alternate group : 1
Encoded date : UTC 2022-04-22 05:39:21
Tagged date : UTC 2022-04-22 05:40:33
Codec configuration box : hvcC+dvcC

Audio
ID : 2
Format : E-AC-3 JOC
Format/Info : Enhanced AC-3 with Joint Object Coding
Commercial name : Dolby Digital Plus with Dolby Atmos
Codec ID : ec-3
Duration : 1 h 1 min
Bit rate mode : Constant
Bit rate : 768 kb/s
Maximum bit rate : 811 kb/s
Channel(s) : 6 channels
Channel layout : L R C LFE Ls Rs
Sampling rate : 48.0 kHz
Frame rate : 31.250 FPS (1536 SPF)
Compression mode : Lossy
Stream size : 339 MiB (3%)
Title : English
Language : English
Service kind : Complete Main
Default : Yes
Alternate group : 1
Tagged date : UTC 2022-04-22 05:40:33
Complexity index : Not present / 16
Number of dynamic objects : 15
Bed channel count : 1 channel
Bed channel configuration : LFE

Text #1
ID : 3
Format : Timed Text
Codec ID : tx3g
Duration : 1 h 0 min
Bit rate mode : Variable
Bit rate : 93 b/s
Stream size : 40.8 KiB (0%)
Title : English
Language : English
Forced : No
Encoded date : UTC 2022-04-22 05:40:29
Tagged date : UTC 2022-04-22 05:40:33

Text #2
ID : 4
Format : Timed Text
Codec ID : tx3g
Duration : 1 h 0 min
Bit rate mode : Variable
Bit rate : 82 b/s
Stream size : 35.9 KiB (0%)
Title : English
Language : English
Forced : No
Encoded date : UTC 2022-04-22 05:40:30
Tagged date : UTC 2022-04-22 05:40:33

Text #3
ID : 5
Format : Timed Text
Codec ID : tx3g
Duration : 1 h 1 min
Bit rate mode : Variable
Bit rate : 106 b/s
Stream size : 47.9 KiB (0%)
Title : Arabic
Language : Arabic
Forced : No
Encoded date : UTC 2022-04-22 05:40:30
Tagged date : UTC 2022-04-22 05:40:33

Text #4
ID : 6
Format : Timed Text
Codec ID : tx3g
Duration : 1 h 1 min
Bit rate mode : Variable
Bit rate : 117 b/s
Stream size : 52.7 KiB (0%)
Title : Bulgarian
Language : Bulgarian
Forced : No
Encoded date : UTC 2022-04-22 05:40:30
Tagged date : UTC 2022-04-22 05:40:33

Text #5
ID : 7
Format : Timed Text
Codec ID : tx3g
Duration : 1 h 1 min
Bit rate mode : Variable
Bit rate : 74 b/s
Stream size : 33.5 KiB (0%)
Title : 中文-粤语
Language : Chinese
Forced : No
Encoded date : UTC 2022-04-22 05:40:30
Tagged date : UTC 2022-04-22 05:40:33

Text #6
ID : 8
Format : Timed Text
Codec ID : tx3g
Duration : 1 h 1 min
Bit rate mode : Variable
Bit rate : 75 b/s
Stream size : 33.7 KiB (0%)
Title : 中文-简体
Language : Chinese
Forced : No
Encoded date : UTC 2022-04-22 05:40:30
Tagged date : UTC 2022-04-22 05:40:33

Text #7
ID : 9
Format : Timed Text
Codec ID : tx3g
Duration : 1 h 1 min
Bit rate mode : Variable
Bit rate : 76 b/s
Stream size : 34.5 KiB (0%)
Title : 中文-繁体
Language : 中文
Forced : No
Encoded date : UTC 2022-04-22 05:40:30
Tagged date : UTC 2022-04-22 05:40:33


Text #8
ID : 10
Format : Timed Text
Codec ID : tx3g
Duration : 1 h 1 min
Bit rate mode : Variable
Bit rate : 73 b/s
Stream size : 33.0 KiB (0%)
Title : Czech
Language : Czech
Forced : No
Encoded date : UTC 2022-04-22 05:40:30
Tagged date : UTC 2022-04-22 05:40:33

Text #9
ID : 11
Format : Timed Text
Codec ID : tx3g
Duration : 1 h 1 min
Bit rate mode : Variable
Bit rate : 66 b/s
Stream size : 30.0 KiB (0%)
Title : Danish
Language : Danish
Forced : No
Encoded date : UTC 2022-04-22 05:40:30
Tagged date : UTC 2022-04-22 05:40:33

Text #10
ID : 12
Format : Timed Text
Codec ID : tx3g
Duration : 1 h 1 min
Bit rate mode : Variable
Bit rate : 69 b/s
Stream size : 30.9 KiB (0%)
Title : Dutch
Language : Dutch
Forced : No
Encoded date : UTC 2022-04-22 05:40:30
Tagged date : UTC 2022-04-22 05:40:33

Text #11
ID : 13
Format : Timed Text
Codec ID : tx3g
Duration : 1 h 1 min
Bit rate mode : Variable
Bit rate : 72 b/s
Stream size : 32.3 KiB (0%)
Title : Estonian
Language : Estonian
Forced : No
Encoded date : UTC 2022-04-22 05:40:30
Tagged date : UTC 2022-04-22 05:40:33

Text #12
ID : 14
Format : Timed Text
Codec ID : tx3g
Duration : 1 h 1 min
Bit rate mode : Variable
Bit rate : 73 b/s
Stream size : 33.0 KiB (0%)
Title : Finnish
Language : Finnish
Forced : No
Encoded date : UTC 2022-04-22 05:40:30
Tagged date : UTC 2022-04-22 05:40:33

Text #13
ID : 15
Format : Timed Text
Codec ID : tx3g
Duration : 1 h 0 min
Bit rate mode : Variable
Bit rate : 75 b/s
Stream size : 33.1 KiB (0%)
Title : French
Language : French
Forced : No
Encoded date : UTC 2022-04-22 05:40:30
Tagged date : UTC 2022-04-22 05:40:33

Text #14
ID : 16
Format : Timed Text
Codec ID : tx3g
Duration : 1 h 0 min
Bit rate mode : Variable
Bit rate : 75 b/s
Stream size : 33.2 KiB (0%)
Title : French-CA
Language : French
Forced : No
Encoded date : UTC 2022-04-22 05:40:30
Tagged date : UTC 2022-04-22 05:40:33

Text #15
ID : 17
Format : Timed Text
Codec ID : tx3g
Duration : 1 h 1 min
Bit rate mode : Variable
Bit rate : 74 b/s
Stream size : 33.4 KiB (0%)
Title : German
Language : German
Forced : No
Encoded date : UTC 2022-04-22 05:40:30
Tagged date : UTC 2022-04-22 05:40:33

Text #16
ID : 18
Format : Timed Text
Codec ID : tx3g
Duration : 1 h 1 min
Bit rate mode : Variable
Bit rate : 130 b/s
Stream size : 58.7 KiB (0%)
Title : Greek
Language : Greek
Forced : No
Encoded date : UTC 2022-04-22 05:40:31
Tagged date : UTC 2022-04-22 05:40:33

Text #17
ID : 19
Format : Timed Text
Codec ID : tx3g
Duration : 1 h 1 min
Bit rate mode : Variable
Bit rate : 103 b/s
Stream size : 46.6 KiB (0%)
Title : Hebrew
Language : Hebrew
Forced : No
Encoded date : UTC 2022-04-22 05:40:31
Tagged date : UTC 2022-04-22 05:40:33

Text #18
ID : 20
Format : Timed Text
Codec ID : tx3g
Duration : 1 h 1 min
Bit rate mode : Variable
Bit rate : 208 b/s
Stream size : 93.7 KiB (0%)
Title : Hindi
Language : Hindi
Forced : No
Encoded date : UTC 2022-04-22 05:40:31
Tagged date : UTC 2022-04-22 05:40:33

Text #19
ID : 21
Format : Timed Text
Codec ID : tx3g
Duration : 1 h 1 min
Bit rate mode : Variable
Bit rate : 80 b/s
Stream size : 36.3 KiB (0%)
Title : Hungarian
Language : Hungarian
Forced : No
Encoded date : UTC 2022-04-22 05:40:31
Tagged date : UTC 2022-04-22 05:40:33

Text #20
ID : 22
Format : Timed Text
Codec ID : tx3g
Duration : 1 h 1 min
Bit rate mode : Variable
Bit rate : 82 b/s
Stream size : 37.2 KiB (0%)
Title : Indonesian
Language : Indonesian
Forced : No
Encoded date : UTC 2022-04-22 05:40:31
Tagged date : UTC 2022-04-22 05:40:33

Text #21
ID : 23
Format : Timed Text
Codec ID : tx3g
Duration : 1 h 1 min
Bit rate mode : Variable
Bit rate : 78 b/s
Stream size : 35.1 KiB (0%)
Title : Italian
Language : Italian
Forced : No
Encoded date : UTC 2022-04-22 05:40:31
Tagged date : UTC 2022-04-22 05:40:33

Text #22
ID : 24
Format : Timed Text
Codec ID : tx3g
Duration : 1 h 1 min
Bit rate mode : Variable
Bit rate : 64 b/s
Stream size : 29.0 KiB (0%)
Title : Japanese
Language : Japanese
Forced : No
Encoded date : UTC 2022-04-22 05:40:31
Tagged date : UTC 2022-04-22 05:40:33

Text #23
ID : 25
Format : Timed Text
Codec ID : tx3g
Duration : 1 h 1 min
Bit rate mode : Variable
Bit rate : 88 b/s
Stream size : 39.7 KiB (0%)
Title : Korean
Language : Korean
Forced : No
Encoded date : UTC 2022-04-22 05:40:31
Tagged date : UTC 2022-04-22 05:40:33

Text #24
ID : 26
Format : Timed Text
Codec ID : tx3g
Duration : 1 h 1 min
Bit rate mode : Variable
Bit rate : 79 b/s
Stream size : 35.8 KiB (0%)
Title : Latvian
Language : Latvian
Forced : No
Encoded date : UTC 2022-04-22 05:40:31
Tagged date : UTC 2022-04-22 05:40:33

Text #25
ID : 27
Format : Timed Text
Codec ID : tx3g
Duration : 1 h 1 min
Bit rate mode : Variable
Bit rate : 81 b/s
Stream size : 36.8 KiB (0%)
Title : Lithuanian
Language : Lithuanian
Forced : No
Encoded date : UTC 2022-04-22 05:40:31
Tagged date : UTC 2022-04-22 05:40:33

Text #26
ID : 28
Format : Timed Text
Codec ID : tx3g
Duration : 1 h 1 min
Bit rate mode : Variable
Bit rate : 79 b/s
Stream size : 35.7 KiB (0%)
Title : Malay
Language : Malay
Forced : No
Encoded date : UTC 2022-04-22 05:40:31
Tagged date : UTC 2022-04-22 05:40:33

Text #27
ID : 29
Format : Timed Text
Codec ID : tx3g
Duration : 1 h 1 min
Bit rate mode : Variable
Bit rate : 74 b/s
Stream size : 33.3 KiB (0%)
Title : Norwegian
Language : Norwegian
Forced : No
Encoded date : UTC 2022-04-22 05:40:31
Tagged date : UTC 2022-04-22 05:40:33

Text #28
ID : 30
Format : Timed Text
Codec ID : tx3g
Duration : 1 h 1 min
Bit rate mode : Variable
Bit rate : 73 b/s
Stream size : 33.1 KiB (0%)
Title : Polish
Language : Polish
Forced : No
Encoded date : UTC 2022-04-22 05:40:32
Tagged date : UTC 2022-04-22 05:40:33

Text #29
ID : 31
Format : Timed Text
Codec ID : tx3g
Duration : 1 h 1 min
Bit rate mode : Variable
Bit rate : 78 b/s
Stream size : 35.4 KiB (0%)
Title : Portuguese
Language : Portuguese
Forced : No
Encoded date : UTC 2022-04-22 05:40:32
Tagged date : UTC 2022-04-22 05:40:33

Text #30
ID : 32
Format : Timed Text
Codec ID : tx3g
Duration : 1 h 1 min
Bit rate mode : Variable
Bit rate : 76 b/s
Stream size : 34.3 KiB (0%)
Title : Portuguese-BR
Language : Portuguese
Forced : No
Encoded date : UTC 2022-04-22 05:40:32
Tagged date : UTC 2022-04-22 05:40:33

Text #31
ID : 33
Format : Timed Text
Codec ID : tx3g
Duration : 1 h 1 min
Bit rate mode : Variable
Bit rate : 126 b/s
Stream size : 56.9 KiB (0%)
Title : Russian
Language : Russian
Forced : No
Encoded date : UTC 2022-04-22 05:40:32
Tagged date : UTC 2022-04-22 05:40:33

Text #32
ID : 34
Format : Timed Text
Codec ID : tx3g
Duration : 1 h 1 min
Bit rate mode : Variable
Bit rate : 76 b/s
Stream size : 34.4 KiB (0%)
Title : Slovak
Language : Slovak
Forced : No
Encoded date : UTC 2022-04-22 05:40:32
Tagged date : UTC 2022-04-22 05:40:33

Text #33
ID : 35
Format : Timed Text
Codec ID : tx3g
Duration : 1 h 1 min
Bit rate mode : Variable
Bit rate : 68 b/s
Stream size : 30.7 KiB (0%)
Title : Slovenian
Language : Slovenian
Forced : No
Encoded date : UTC 2022-04-22 05:40:32
Tagged date : UTC 2022-04-22 05:40:33

Text #34
ID : 36
Format : Timed Text
Codec ID : tx3g
Duration : 1 h 0 min
Bit rate mode : Variable
Bit rate : 85 b/s
Stream size : 37.5 KiB (0%)
Title : Spanish
Language : Spanish
Forced : No
Encoded date : UTC 2022-04-22 05:40:32
Tagged date : UTC 2022-04-22 05:40:33

Text #35
ID : 37
Format : Timed Text
Codec ID : tx3g
Duration : 1 h 1 min
Bit rate mode : Variable
Bit rate : 85 b/s
Stream size : 38.5 KiB (0%)
Title : Spanish-EU
Language : Spanish
Forced : No
Encoded date : UTC 2022-04-22 05:40:32
Tagged date : UTC 2022-04-22 05:40:33

Text #36
ID : 38
Format : Timed Text
Codec ID : tx3g
Duration : 1 h 1 min
Bit rate mode : Variable
Bit rate : 80 b/s
Stream size : 36.0 KiB (0%)
Title : Swedish
Language : Swedish
Forced : No
Encoded date : UTC 2022-04-22 05:40:32
Tagged date : UTC 2022-04-22 05:40:33

Text #37
ID : 39
Format : Timed Text
Codec ID : tx3g
Duration : 1 h 1 min
Bit rate mode : Variable
Bit rate : 228 b/s
Stream size : 103 KiB (0%)
Title : Tamil
Language : Tamil
Forced : No
Encoded date : UTC 2022-04-22 05:40:32
Tagged date : UTC 2022-04-22 05:40:33

Text #38
ID : 40
Format : Timed Text
Codec ID : tx3g
Duration : 1 h 1 min
Bit rate mode : Variable
Bit rate : 212 b/s
Stream size : 95.9 KiB (0%)
Title : Telugu
Language : Telugu
Forced : No
Encoded date : UTC 2022-04-22 05:40:32
Tagged date : UTC 2022-04-22 05:40:33

Text #39
ID : 41
Format : Timed Text
Codec ID : tx3g
Duration : 1 h 1 min
Bit rate mode : Variable
Bit rate : 188 b/s
Stream size : 84.9 KiB (0%)
Title : Thai
Language : Thai
Forced : No
Encoded date : UTC 2022-04-22 05:40:32
Tagged date : UTC 2022-04-22 05:40:33

Text #40
ID : 42
Format : Timed Text
Codec ID : tx3g
Duration : 1 h 1 min
Bit rate mode : Variable
Bit rate : 81 b/s
Stream size : 36.4 KiB (0%)
Title : Turkish
Language : Turkish
Forced : No
Encoded date : UTC 2022-04-22 05:40:32
Tagged date : UTC 2022-04-22 05:40:33

Text #41
ID : 43
Format : Timed Text
Codec ID : tx3g
Duration : 1 h 1 min
Bit rate mode : Variable
Bit rate : 119 b/s
Stream size : 53.7 KiB (0%)
Title : Ukrainian
Language : Ukrainian
Forced : No
Encoded date : UTC 2022-04-22 05:40:33
Tagged date : UTC 2022-04-22 05:40:33

Text #42
ID : 44
Format : Timed Text
Codec ID : tx3g
Duration : 1 h 1 min
Bit rate mode : Variable
Bit rate : 103 b/s
Stream size : 46.4 KiB (0%)
Title : Vietnamese
Language : Vietnamese
Forced : No
Encoded date : UTC 2022-04-22 05:40:33
Tagged date : UTC 2022-04-22 05:40:33


下载地址:

游客,如果您要查看本帖隐藏内容请回复

游客,如果您要查看本帖隐藏内容请回复

游客,如果您要查看本帖隐藏内容请回复

游客,如果您要查看本帖隐藏内容请回复














上一篇:漫威真人剧集合集,持续更新
下一篇:漫威《月光骑士》第一季 (六集全)4K、1080P版本全
回复

使用道具 举报

1

主题

1389

帖子

4003

积分

4K家园VIP

Rank: 9Rank: 9Rank: 9

积分
4003
发表于 2022-4-24 10:53:42 | 显示全部楼层
高手啊
回复 支持 反对

使用道具 举报

52

主题

1529

帖子

4409

积分

4K家园VIP

Rank: 9Rank: 9Rank: 9

积分
4409
发表于 2022-4-24 10:53:42 | 显示全部楼层
我也是坐沙发的
回复 支持 反对

使用道具 举报

1

主题

1603

帖子

4451

积分

4K家园VIP

Rank: 9Rank: 9Rank: 9

积分
4451
发表于 2022-4-24 10:57:59 | 显示全部楼层
感谢分享
回复 支持 反对

使用道具 举报

3

主题

1703

帖子

4703

积分

4K家园VIP

Rank: 9Rank: 9Rank: 9

积分
4703
发表于 2022-4-24 11:23:29 来自手机 | 显示全部楼层
OMG!介是啥东东!!!
回复 支持 反对

使用道具 举报

49

主题

1473

帖子

4245

积分

4K家园VIP

Rank: 9Rank: 9Rank: 9

积分
4245
发表于 2022-4-24 11:29:52 | 显示全部楼层
感谢楼主发帖,前排顶起
回复 支持 反对

使用道具 举报

0

主题

8229

帖子

1万

积分

4K家园VIP

Rank: 9Rank: 9Rank: 9

积分
18818
发表于 2022-4-24 12:02:33 | 显示全部楼层
太好啦&萬分感謝版主的無私發佈分享%
回复 支持 反对

使用道具 举报

0

主题

26

帖子

1561

积分

4K家园VIP

Rank: 9Rank: 9Rank: 9

积分
1561
发表于 2022-4-24 12:07:45 | 显示全部楼层
下载不了,115下载
回复 支持 反对

使用道具 举报

0

主题

6

帖子

21

积分

新手上路

Rank: 1

积分
21
发表于 2022-4-24 19:04:22 | 显示全部楼层
wework的故事 哈哈哈哈 下来看看
回复 支持 反对

使用道具 举报

您需要登录后才可以回帖 登录 | 立即注册

本版积分规则

精彩图文
Archiver|手机版|TAG|Sitemap|新帖|专题|联系我们:邮箱: 4kjia.com@gmail.com   

4k家园   ©2019