英伦式丑闻A Very British Scandal(2022)第一季全3集/4K高清版本下载

[复制链接]

主题

帖子

0

积分

超级版主

Rank: 8Rank: 8

积分
0
 楼主| 发表于 2022-4-24 20:08:47 | 显示全部楼层 |阅读模式

p2870237093_副本.jpg

◎译  名 英伦式丑闻 第一季 / 英式丑闻 / 英国式丑闻 / A Very English Scandal
◎片  名 A Very British Scandal Season 1
◎年  代 2021
◎产  地 英国
◎类  别 剧情 / 喜剧 / 传记 / 历史 / 犯罪
◎语  言 英语
◎上映日期 2021-12-26(英国)
◎IMDb评分  7.0/10 from 3836 users
◎IMDb链接  https://www.imdb.com/title/tt14220870/
◎豆瓣评分 7.5/10 from 852 users
◎豆瓣链接 https://movie.douban.com/subject/34990592/
◎集  数 3
◎片  长 60分钟
◎导  演 安妮·塞维茨基 Anne Sewitsky
◎编  剧 莎拉·菲尔普斯 Sarah Phelps
◎演  员 克莱尔·芙伊 Claire Foy
       保罗·贝坦尼 Paul Bettany
       朱莉娅·戴维斯 Julia Davis
       理查德·麦凯布 Richard McCabe
       索菲娅·迈尔斯 Sophia Myles
       菲比·尼克尔斯 Phoebe Nicholls
       阿曼达·德鲁 Amanda Drew
       理查德·古尔丁 Richard Goulding
       蒂莫西·雷诺夫 Timothy Renouf
       卡米拉·拉瑟福德 Camilla Rutherford
       乔纳森·阿里斯 Jonathan Aris
       奥利弗·克里斯 Oliver Chris
       尼古拉斯·罗尔 Nicholas Rowe
       奥尔文·梅 Olwen May
       唐·加拉格尔 Don Gallagher
       索菲娅·沃德 Sophie Ward
       迈尔斯·贾普 Miles Jupp
       蒂姆·斯蒂德 Tim Steed
       马特·里皮 Matt Rippy
       丹尼尔·弗恩 Daniel Fearn
       Simon Thorp Simon Thorp
       马修·斯塔格 Matthew Stagg
       霍莉·伍德豪斯 Holly Woodhouse
       David Monteath David Monteath
       艾尔柏婷·科丁·麦克米伦 Albertine Kotting McMillan
       伊恩·富尔彻 Ian Fulcher


◎简  介


  本剧是BBC基于《A Very English Scandal》打造诗选类剧集,考虑到故事背景变化,续作重命名为《A Very British Scandal》。故事将讲述英国上层阶级遭遇的丑闻危机。
新故事背景为苏格兰,聚焦1963年阿盖尔公爵夫人Margaret Campbell的性丑闻事件。在Margaret(Claire Foy饰)与第二任丈夫混乱的离婚过程中,其丈夫阿盖尔公爵(Paul Bettany饰)拿到了她与一名陌生男性发生性行为的照片,Margaret由此被称为"肮脏的公爵夫人"。

Video
ID : 1
Format : HEVC
Format/Info : High Efficiency Video Coding
Format profile : Main 10@L5@Main
HDR format : SMPTE ST 2094 App 4, Version 1, HDR10+ Profile B compatible
Codec ID : V_MPEGH/ISO/HEVC
Duration : 59 min 22 s
Bit rate : 14.4 Mb/s
Width : 3 840 pixels
Height : 2 160 pixels
Display aspect ratio : 16:9
Frame rate mode : Constant
Frame rate : 25.000 FPS
Color space : YUV
Chroma subsampling : 4:2:0
Bit depth : 10 bits
Bits/(Pixel*Frame) : 0.070
Stream size : 5.99 GiB (94%)
Default : Yes
Forced : No
Color range : Limited
Color primaries : BT.2020
Transfer characteristics : PQ
Matrix coefficients : BT.2020 non-constant
Mastering display color primaries : Display P3
Mastering display luminance : min: 0.0001 cd/m2, max: 1000 cd/m2
Maximum Content Light Level : 689 cd/m2
Maximum Frame-Average Light Level : 567 cd/m2

Audio
ID : 2
Format : E-AC-3
Format/Info : Enhanced AC-3
Commercial name : Dolby Digital Plus
Codec ID : A_EAC3
Duration : 59 min 22 s
Bit rate mode : Constant
Bit rate : 640 kb/s
Channel(s) : 6 channels
Channel layout : L R C LFE Ls Rs
Sampling rate : 48.0 kHz
Frame rate : 31.250 FPS (1536 SPF)
Compression mode : Lossy
Stream size : 272 MiB (4%)
Language : English
Service kind : Complete Main
Default : Yes
Forced : No

Text #1
ID : 3
Format : UTF-8
Codec ID : S_TEXT/UTF8
Codec ID/Info : UTF-8 Plain Text
Title : English
Language : English
Default : No
Forced : No

Text #2
ID : 4
Format : UTF-8
Codec ID : S_TEXT/UTF8
Codec ID/Info : UTF-8 Plain Text
Title : English [SDH]
Language : English
Default : No
Forced : No

Text #3
ID : 5
Format : UTF-8
Codec ID : S_TEXT/UTF8
Codec ID/Info : UTF-8 Plain Text
Title : French
Language : French
Default : No
Forced : No

Text #4
ID : 6
Format : UTF-8
Codec ID : S_TEXT/UTF8
Codec ID/Info : UTF-8 Plain Text
Title : Latin America Spanish
Language : Spanish
Default : No
Forced : No
下载地址:

游客,如果您要查看本帖隐藏内容请回复

游客,如果您要查看本帖隐藏内容请回复





上一篇:魔术师传奇(内嵌简繁中字) (2022)/第一季全4集/4K高清版本下载
下一篇:迷网追凶(内嵌中字)Grid (2022)第一季全10集/4K高清版本下载
回复

使用道具 举报

0

主题

1713

帖子

4769

积分

4K家园VIP

Rank: 9Rank: 9Rank: 9

积分
4769
发表于 2022-4-24 20:08:59 | 显示全部楼层
看起来好像不错的样子
回复 支持 反对

使用道具 举报

主题

帖子

0

积分

4K家园VIP

Rank: 9Rank: 9Rank: 9

积分
0
发表于 2022-4-24 20:28:48 | 显示全部楼层
太好啦&萬分感謝版主的無私發佈分享%
回复 支持 反对

使用道具 举报

主题

帖子

24

积分

新手上路

Rank: 1

积分
24
发表于 2022-4-25 11:57:28 | 显示全部楼层
支持支持,新手报道
回复 支持 反对

使用道具 举报

4

主题

1419

帖子

4268

积分

4K家园VIP

Rank: 9Rank: 9Rank: 9

积分
4268
发表于 2022-4-25 21:03:01 来自手机 | 显示全部楼层
我也顶起出售广告位
回复 支持 反对

使用道具 举报

1

主题

1211

帖子

3653

积分

4K家园VIP

Rank: 9Rank: 9Rank: 9

积分
3653
发表于 2022-4-25 21:24:37 | 显示全部楼层
嘘,低调。
回复 支持 反对

使用道具 举报

主题

帖子

141

积分

4K家园VIP

Rank: 9Rank: 9Rank: 9

积分
141
发表于 2022-4-26 13:03:50 来自手机 | 显示全部楼层
太好了太好了
回复 支持 反对

使用道具 举报

4

主题

1284

帖子

3884

积分

4K家园VIP

Rank: 9Rank: 9Rank: 9

积分
3884
发表于 2022-4-27 10:43:43 | 显示全部楼层
看着好像不错
回复 支持 反对

使用道具 举报

47

主题

1523

帖子

4363

积分

4K家园VIP

Rank: 9Rank: 9Rank: 9

积分
4363
发表于 2022-4-30 18:47:31 来自手机 | 显示全部楼层
回复 支持 反对

使用道具 举报

1

主题

1315

帖子

3961

积分

4K家园VIP

Rank: 9Rank: 9Rank: 9

积分
3961
发表于 2022-11-10 08:59:49 | 显示全部楼层
为了三千积分!
回复 支持 反对

使用道具 举报

您需要登录后才可以回帖 登录 | 立即注册

本版积分规则

精彩图文
Archiver|手机版|TAG|Sitemap|新帖|专题|联系我们:邮箱: 4kjia.com@gmail.com   

4k家园   ©2019