[4K电影] 7天 / Days (2021) 4K高清版本下载

[复制链接]

1735

主题

1868

帖子

1万

积分

超级版主

Rank: 8Rank: 8

积分
14105
 楼主| 发表于 2022-4-26 20:03:01 | 显示全部楼层 |阅读模式
QQ图片20220426200027_副本.png

◎译  名 7天
◎片  名 Days
◎年  代 2021
◎产  地 美国
◎类  别 剧情 / 喜剧
◎语  言 英语
◎上映日期 2021 年 6 月 10 日 (美国)
◎IMDb评分  6.7/10 from 147 users
◎IMDb链接  https://www.imdb.com/title/tt14494586/
◎片  长 86分钟
◎导  演 肉山塞西 Roshan Sethi
◎编  剧 肉山塞西 Roshan Sethi / 卡兰·索尼
◎演  员 卡兰·索尼 Karan Soni
                  杰拉尔丁·维斯瓦纳坦 Geraldine Viswanathan
                  吉塔·雷迪 Gita Reddy
                  文尼·奇伯 Vinny Chhibber
                  阿西夫·阿里 Asif Ali
                  马克·杜普拉斯 Mark Duplass
                 小黛博拉·贝克 Deborah Baker Jr
                 杰弗里·塞尔夫 Jeffery Self
                 阿帕娜·南彻拉 Aparna Nancherla
                 丽兹·卡德纳斯 Liz Cardenas
                 芝诺比亚·史洛夫 Zenobia Shroff



◎简  介   


        好像他们的传统印度父母组织的预先安排的约会还不够不舒服,随着 COVID-19 的蔓延,拉维和丽塔被迫一起就地避难。
Video
ID : 1
Format : HEVC
Format/Info : High Efficiency Video Coding
Format profile : Main 10@L5@High
Codec ID : V_MPEGH/ISO/HEVC
Duration : 1 h 26 min
Bit rate : 11.9 Mb/s
Width : 3 832 pixels
Height : 1 912 pixels
Display aspect ratio : 2.004
Frame rate mode : Constant
Frame rate : 23.976 FPS
Color space : YUV
Chroma subsampling : 4:2:0
Bit depth : 10 bits
Bits/(Pixel*Frame) : 0.068
Stream size : 7.19 GiB (97%)
Default : Yes
Forced : No
Color range : Limited
Color primaries : BT.709
Transfer characteristics : BT.709
Matrix coefficients : BT.709

Audio
ID : 2
Format : AC-3
Format/Info : Audio Coding 3
Commercial name : Dolby Digital
Codec ID : A_AC3
Duration : 1 h 26 min
Bit rate mode : Constant
Bit rate : 384 kb/s
Channel(s) : 6 channels
Channel layout : L R C LFE Ls Rs
Sampling rate : 48.0 kHz
Frame rate : 31.250 FPS (1536 SPF)
Compression mode : Lossy
Stream size : 237 MiB (3%)
Language : English
Service kind : Complete Main
Default : Yes
Forced : No

Text
ID : 3
Format : UTF-8
Codec ID : S_TEXT/UTF8
Codec ID/Info : UTF-8 Plain Text
Duration : 1 h 23 min
Bit rate : 61 b/s
Count of elements : 1531
Stream size : 37.9 KiB (0%)
Language : English
Default : Yes
Forced : No


资源速度为零或资源敏感被和谐时,推荐使用qBittorrent等下载软件,有条件的推荐115更好的下载软件!

下载地址:

游客,如果您要查看本帖隐藏内容请回复






上一篇:北极熊目击者 (内封中字) / Bear Witness (2022) 4K高清版本下载
下一篇:庄园夫人(内封繁体中字)/ Lady of the Manor (2021) 4K高清版本下载
回复

使用道具 举报

2

主题

1395

帖子

4035

积分

4K家园VIP

Rank: 9Rank: 9Rank: 9

积分
4035
发表于 2022-4-26 20:03:07 | 显示全部楼层
顶起顶起顶起
回复 支持 反对

使用道具 举报

0

主题

8230

帖子

1万

积分

4K家园VIP

Rank: 9Rank: 9Rank: 9

积分
18830
发表于 2022-4-26 21:14:35 | 显示全部楼层
太好啦&萬分感謝版主的無私發佈分享%
回复 支持 反对

使用道具 举报

14

主题

1236

帖子

3698

积分

4K家园VIP

Rank: 9Rank: 9Rank: 9

积分
3698
发表于 2022-4-26 22:03:53 来自手机 | 显示全部楼层
怎么这么大,希望我电视能看啊
回复 支持 反对

使用道具 举报

48

主题

1525

帖子

4447

积分

4K家园VIP

Rank: 9Rank: 9Rank: 9

积分
4447
发表于 2022-4-26 22:27:56 | 显示全部楼层
看起来好像不错的样子
回复 支持 反对

使用道具 举报

45

主题

1475

帖子

4273

积分

4K家园VIP

Rank: 9Rank: 9Rank: 9

积分
4273
发表于 2022-4-27 00:22:50 | 显示全部楼层
前排顶,很好!
回复 支持 反对

使用道具 举报

0

主题

1302

帖子

3922

积分

4K家园VIP

Rank: 9Rank: 9Rank: 9

积分
3922
发表于 2022-4-27 01:08:19 | 显示全部楼层
4K版的应该更清晰吧
回复 支持 反对

使用道具 举报

0

主题

27

帖子

210

积分

新手上路

Rank: 1

积分
210
发表于 2022-4-27 09:20:42 | 显示全部楼层

4K家园资源不错,前排支持
回复 支持 反对

使用道具 举报

0

主题

105

帖子

5771

积分

高级会员

Rank: 3Rank: 3

积分
5771
发表于 2022-4-27 09:48:32 | 显示全部楼层
感謝版主的無私發佈分享
回复 支持 反对

使用道具 举报

0

主题

3

帖子

12

积分

新手上路

Rank: 1

积分
12
发表于 2022-4-27 10:41:20 | 显示全部楼层
4K家园资源不错,前排支持
回复 支持 反对

使用道具 举报

您需要登录后才可以回帖 登录 | 立即注册

本版积分规则

精彩图文
Archiver|手机版|TAG|Sitemap|新帖|专题|联系我们:邮箱: 4kjia.com@gmail.com   

4k家园   ©2019