[选美小姐]4K-WEBRip.x265.10bit./17.84GB

[复制链接]

3721

主题

3844

帖子

3万

积分

论坛元老

Rank: 8Rank: 8

积分
30081
 楼主| 发表于 2019-4-24 21:45:29 | 显示全部楼层 |阅读模式
p2553784198.webp.jpg

◎译  名 选美小姐/双面蝶
◎片  名 Miss Bala
◎年  代 2019
◎国  家 美国/墨西哥
◎类  别 动作/惊悚
◎语  言 英语
◎字  幕 中文字幕
◎IMDB评分  5.3/10 from 2,021 users
◎IMDB链接  https://www.imdb.com/title/tt5941692/
◎文件格式 X264 + DTS
◎视频尺寸 1920 x 800
◎文件大小 1 DVD
◎片  长 103 Mins
◎导  演 凯瑟琳·哈德威克 Catherine Hardwicke
◎主  演 吉娜·罗德里格兹 Gina Rodriguez
      马特·劳瑞亚 Matt Lauria
      伊斯梅尔·克鲁斯 Ismael Cruz Cordova
      Ricardo Abarca
      Cristina Rodlo
      Daniela de la Fe
      安东尼·麦凯 Anthony Mackie
      艾斯琳·德贝兹 Aislinn Derbez
      Omar Ayala
      托马斯·戴克 Thomas Dekker
      Vivian Chan
      Barbarella Pardo
      Sebastián Cano
      Gaby Orihuela
      达米安·阿尔卡扎 Damián Alcázar
      Erick Rene Delgadi
      Mikhail Plata
      Jorge Humberto Mil
      Job Sarmiento
      Roberto Sosa
      Lilian Guadalupe T
      Henry Torres Blanco
      Oscar Estrada
      Jimmy Gonzales
      José Sefami
      Aldo Quintero Torres
      Melina Oronia
      Joel Navarro Ponce
      Joe LoCicero
      Lidia Isabel Quiro
      Alan Alzalde
      Carlos Eves
      Andrés García
      Irving Lemus
      Roberto Colin
      Eliel Morales
      Rosalio Ruiz
      Topsy Ruíz
      Tornado Ruiz
      Abram Serratos

◎简  介 

  故事讲述女模特劳拉因目睹黑帮犯罪过程而导致生活发生天翻地覆的变化。


Video
ID : 1
Format : HEVC
Format/Info : High Efficiency Video Coding
Commercial name : HDR10
Format profile : Main [email protected]@High
Codec ID : V_MPEGH/ISO/HEVC
Duration : 1 h 43 min
Bit rate : 21.3 Mb/s
Width : 3 840 pixels
Height : 1 600 pixels
Display aspect ratio : 2.40:1
Frame rate mode : Constant
Frame rate : 23.976 (24000/1001) FPS
Color space : YUV
Chroma subsampling : 4:2:0 (Type 2)
Bit depth : 10 bits
Bits/(Pixel*Frame) : 0.145
Stream size : 15.5 GiB (87%)
Writing library : x265 3.0_Au+16-0018ca1ca42f:[Windows][GCC 8.3.0][64 bit] 10bit
Default : Yes
Forced : No
Color range : Limited
Color primaries : BT.2020
Transfer characteristics : PQ
Matrix coefficients : BT.2020 non-constant
Mastering display color primaries : Display P3
Mastering display luminance : min: 0.0050 cd/m2, max: 4000 cd/m2
Maximum Content Light Level : 4000 cd/m2
Maximum Frame-Average Light Level : 1239 cd/m2

Audio #1
ID : 2
Format : DTS XLL
Format/Info : Digital Theater Systems
Commercial name : DTS-HD Master Audio
Codec ID : A_DTS
Duration : 1 h 43 min
Bit rate mode : Variable
Bit rate : 2 220 kb/s
Channel(s) : 6 channels
Channel layout : C L R Ls Rs LFE
Sampling rate : 48.0 kHz
Frame rate : 93.750 FPS (512 SPF)
Bit depth : 16 bits
Compression mode : Lossless
Stream size : 1.61 GiB (9%)
Language : English
Default : Yes
Forced : No





游客,如果您要查看本帖隐藏内容请回复


上一篇:美国漫威超强科幻大片《复仇者联盟3:无限战争》最全版本
下一篇:[挖矿也疯狂] 4K-高清下载/3.18GB
推荐使用BitTorrent、qBittorrent、μTorrent、比特精灵、迅雷5.8软件下载
回复

使用道具 举报

60

主题

1102

帖子

3164

积分

4K家园VIP

Rank: 9Rank: 9Rank: 9

积分
3164
发表于 2019-4-24 21:45:34 | 显示全部楼层
路过的帮顶
回复 支持 反对

使用道具 举报

0

主题

1

帖子

16

积分

新手上路

Rank: 1

积分
16
发表于 2019-4-24 22:01:23 | 显示全部楼层
ASD。。。。。。。。。。。。。。。。
回复

使用道具 举报

0

主题

48

帖子

396

积分

注册会员

Rank: 2

积分
396
发表于 2019-4-24 23:28:27 | 显示全部楼层
可以看看!!1
回复

使用道具 举报

0

主题

790

帖子

3360

积分

高级会员

Rank: 3Rank: 3

积分
3360
发表于 2019-4-25 00:36:07 | 显示全部楼层
楼主发贴辛苦了,谢谢楼主分享!我觉得来4K家园是注册对了!
回复 支持 反对

使用道具 举报

0

主题

4

帖子

28

积分

新手上路

Rank: 1

积分
28
发表于 2019-4-25 06:19:22 | 显示全部楼层
i like nice.
回复

使用道具 举报

0

主题

944

帖子

2660

积分

4K家园VIP

Rank: 9Rank: 9Rank: 9

积分
2660
发表于 2019-4-25 07:21:51 | 显示全部楼层
支持,赞一个
回复 支持 反对

使用道具 举报

1

主题

24

帖子

99

积分

新手上路

Rank: 1

积分
99
发表于 2019-4-25 07:53:10 | 显示全部楼层
什么骗子,看看
回复 支持 反对

使用道具 举报

0

主题

978

帖子

2780

积分

4K家园VIP

Rank: 9Rank: 9Rank: 9

积分
2780
发表于 2019-4-25 08:05:49 来自手机 | 显示全部楼层
多谢楼主分享
回复 支持 反对

使用道具 举报

0

主题

22

帖子

1042

积分

中级会员

Rank: 4

积分
1042
发表于 2019-4-25 12:25:08 | 显示全部楼层
谢谢楼主,谢谢楼主无私分享
回复 支持 反对

使用道具 举报

您需要登录后才可以回帖 登录 | 立即注册

本版积分规则

精彩图文
关闭

站长推荐上一条 /1 下一条

4k家园   ©2019