[4K电影] 庄园夫人(内封繁体中字)/ Lady of the Manor (2021) 4K高清版本下载

[复制链接]

1735

主题

1868

帖子

1万

积分

超级版主

Rank: 8Rank: 8

积分
14105
 楼主| 发表于 2022-4-28 19:46:55 | 显示全部楼层 |阅读模式
本帖最后由 最爱4K哟 于 2022-5-2 13:50 编辑

QQ图片20220428193408_副本.png

◎译  名 庄园夫人 / 女领主
◎片  名 Lady of the Manor
◎年  代 2021
◎产  地 美国
◎类  别 喜剧
◎语  言 英语
◎上映日期 2021-06-10(加斯帕里利亚国际电影节) / 2021-09-17(美国)
◎IMDb链接 https://www.imdb.com/title/tt11826450/
◎豆瓣评分 5.6/10 (197人评价)
◎豆瓣链接 https://movie.douban.com/subject/35072572/
◎片  长 96分钟
◎导  演 贾斯汀·朗 Justin Long / 克里斯蒂安·朗 Christian Long
◎编  剧 贾斯汀·朗 Justin Long / 克里斯蒂安·朗 Christian Long
◎演  员 梅兰妮·林斯基 Melanie Lynskey
       朱迪·格雷尔 Judy Greer
       贾斯汀·朗 Justin Long
       瑞恩·菲利普 Ryan Phillippe
       路易斯·古兹曼 Luis Guzmán
       帕特里克·杜菲 Patrick Duffy

◎简  介


  在这部超搞笑的兄弟喜剧中,过去和现在发生了碰撞,吸毒的懒鬼汉娜(梅兰妮·林斯基饰)被雇来扮演沃兹沃斯夫人(朱迪·格里尔饰),一位死于1875年在沃兹沃斯庄园旅行的南方美女。汉娜,一团糟,认为她可以假装——直到沃兹沃斯夫人的鬼魂出现!在这部由贾斯汀·朗和瑞安·菲利普联袂主演的搞笑电影中,沃兹沃斯夫人告诉汉娜,是时候改变她狂野的生活方式了——她会一直缠着汉娜直到她改变。

Video
ID : 1
Format : HEVC
Format/Info : High Efficiency Video Coding
Format profile : Main 10@L5@High
HDR format : Dolby Vision, Version 1.0, dvhe.05.06, BL+RPU
Codec ID : dvhe
Codec ID/Info : High Efficiency Video Coding with Dolby Vision
Duration : 1 h 36 min
Bit rate : 24.7 Mb/s
Width : 3 832 pixels
Height : 2 072 pixels
Original height : 2 068 pixels
Display aspect ratio : 1.85:1
Original display aspect ratio : 1.85:1
Frame rate mode : Constant
Frame rate : 23.976 (23976/1000) FPS
Color space : YUV
Chroma subsampling : 4:2:0
Bit depth : 10 bits
Bits/(Pixel*Frame) : 0.130
Stream size : 16.7 GiB (98%)
Default : Yes
Alternate group : 1
Encoded date : UTC 2022-04-28 06:57:50
Tagged date : UTC 2022-04-28 06:59:22
Codec configuration box : hvcC+dvcC

Audio
ID : 2
Format : AC-3
Format/Info : Audio Coding 3
Commercial name : Dolby Digital
Codec ID : ac-3
Duration : 1 h 36 min
Bit rate mode : Constant
Bit rate : 384 kb/s
Maximum bit rate : 406 kb/s
Channel(s) : 6 channels
Channel layout : L R C LFE Ls Rs
Sampling rate : 48.0 kHz
Frame rate : 31.250 FPS (1536 SPF)
Compression mode : Lossy
Stream size : 265 MiB (2%)
Title : English
Language : English
Service kind : Complete Main
Default : Yes
Alternate group : 1
Tagged date : UTC 2022-04-28 06:59:22

Text #1
ID : 3
Format : Timed Text
Codec ID : tx3g
Duration : 1 h 36 min
Bit rate mode : Variable
Bit rate : 95 b/s
Stream size : 67.3 KiB (0%)
Title : English
Language : English
Forced : No
Encoded date : UTC 2022-04-28 06:59:20
Tagged date : UTC 2022-04-28 06:59:22

Text #2
ID : 4
Format : Timed Text
Codec ID : tx3g
Duration : 1 h 36 min
Bit rate mode : Variable
Bit rate : 126 b/s
Stream size : 88.8 KiB (0%)
Title : Arabic
Language : Arabic
Forced : No
Encoded date : UTC 2022-04-28 06:59:21
Tagged date : UTC 2022-04-28 06:59:22

Text #3
ID : 5
Format : Timed Text
Codec ID : tx3g
Duration : 1 h 36 min
Bit rate mode : Variable
Bit rate : 78 b/s
Stream size : 55.0 KiB (0%)
Title : 中文-繁体
Language : 中文
Forced : No
Encoded date : UTC 2022-04-28 06:59:21
Tagged date : UTC 2022-04-28 06:59:22


Text #4
ID : 6
Format : Timed Text
Codec ID : tx3g
Duration : 1 h 36 min
Bit rate mode : Variable
Bit rate : 75 b/s
Stream size : 53.1 KiB (0%)
Title : Danish
Language : Danish
Forced : No
Encoded date : UTC 2022-04-28 06:59:21
Tagged date : UTC 2022-04-28 06:59:22

Text #5
ID : 7
Format : Timed Text
Codec ID : tx3g
Duration : 1 h 36 min
Bit rate mode : Variable
Bit rate : 76 b/s
Stream size : 54.0 KiB (0%)
Title : Dutch
Language : Dutch
Forced : No
Encoded date : UTC 2022-04-28 06:59:21
Tagged date : UTC 2022-04-28 06:59:22

Text #6
ID : 8
Format : Timed Text
Codec ID : tx3g
Duration : 1 h 36 min
Bit rate mode : Variable
Bit rate : 76 b/s
Stream size : 53.8 KiB (0%)
Title : Finnish
Language : Finnish
Forced : No
Encoded date : UTC 2022-04-28 06:59:21
Tagged date : UTC 2022-04-28 06:59:22

Text #7
ID : 9
Format : Timed Text
Codec ID : tx3g
Duration : 1 h 36 min
Bit rate mode : Variable
Bit rate : 78 b/s
Stream size : 54.7 KiB (0%)
Title : French
Language : French
Forced : No
Encoded date : UTC 2022-04-28 06:59:21
Tagged date : UTC 2022-04-28 06:59:22

Text #8
ID : 10
Format : Timed Text
Codec ID : tx3g
Duration : 1 h 36 min
Bit rate mode : Variable
Bit rate : 85 b/s
Stream size : 60.3 KiB (0%)
Title : German
Language : German
Forced : No
Encoded date : UTC 2022-04-28 06:59:21
Tagged date : UTC 2022-04-28 06:59:22

Text #9
ID : 11
Format : Timed Text
Codec ID : tx3g
Duration : 1 h 36 min
Bit rate mode : Variable
Bit rate : 83 b/s
Stream size : 58.3 KiB (0%)
Title : Italian
Language : Italian
Forced : No
Encoded date : UTC 2022-04-28 06:59:21
Tagged date : UTC 2022-04-28 06:59:22

Text #10
ID : 12
Format : Timed Text
Codec ID : tx3g
Duration : 1 h 36 min
Bit rate mode : Variable
Bit rate : 71 b/s
Stream size : 50.0 KiB (0%)
Title : Japanese
Language : Japanese
Forced : No
Encoded date : UTC 2022-04-28 06:59:21
Tagged date : UTC 2022-04-28 06:59:22

Text #11
ID : 13
Format : Timed Text
Codec ID : tx3g
Duration : 1 h 36 min
Bit rate mode : Variable
Bit rate : 88 b/s
Stream size : 61.9 KiB (0%)
Title : Korean
Language : Korean
Forced : No
Encoded date : UTC 2022-04-28 06:59:21
Tagged date : UTC 2022-04-28 06:59:22

Text #12
ID : 14
Format : Timed Text
Codec ID : tx3g
Duration : 1 h 36 min
Bit rate mode : Variable
Bit rate : 81 b/s
Stream size : 57.5 KiB (0%)
Title : Norwegian
Language : Norwegian
Forced : No
Encoded date : UTC 2022-04-28 06:59:21
Tagged date : UTC 2022-04-28 06:59:22

Text #13
ID : 15
Format : Timed Text
Codec ID : tx3g
Duration : 1 h 36 min
Bit rate mode : Variable
Bit rate : 68 b/s
Stream size : 48.3 KiB (0%)
Title : Polish
Language : Polish
Forced : No
Encoded date : UTC 2022-04-28 06:59:21
Tagged date : UTC 2022-04-28 06:59:22

Text #14
ID : 16
Format : Timed Text
Codec ID : tx3g
Duration : 1 h 36 min
Bit rate mode : Variable
Bit rate : 84 b/s
Stream size : 59.0 KiB (0%)
Title : Portuguese
Language : Portuguese
Forced : No
Encoded date : UTC 2022-04-28 06:59:21
Tagged date : UTC 2022-04-28 06:59:22

Text #15
ID : 17
Format : Timed Text
Codec ID : tx3g
Duration : 1 h 36 min
Bit rate mode : Variable
Bit rate : 77 b/s
Stream size : 54.4 KiB (0%)
Title : Portuguese
Language : Portuguese
Forced : No
Encoded date : UTC 2022-04-28 06:59:22
Tagged date : UTC 2022-04-28 06:59:22

Text #16
ID : 18
Format : Timed Text
Codec ID : tx3g
Duration : 1 h 36 min
Bit rate mode : Variable
Bit rate : 130 b/s
Stream size : 91.7 KiB (0%)
Title : Russian
Language : Russian
Forced : No
Encoded date : UTC 2022-04-28 06:59:22
Tagged date : UTC 2022-04-28 06:59:22

Text #17
ID : 19
Format : Timed Text
Codec ID : tx3g
Duration : 1 h 36 min
Bit rate mode : Variable
Bit rate : 79 b/s
Stream size : 55.9 KiB (0%)
Title : Spanish
Language : Spanish
Forced : No
Encoded date : UTC 2022-04-28 06:59:22
Tagged date : UTC 2022-04-28 06:59:22

Text #18
ID : 20
Format : Timed Text
Codec ID : tx3g
Duration : 1 h 36 min
Bit rate mode : Variable
Bit rate : 86 b/s
Stream size : 60.8 KiB (0%)
Title : Spanish-EU
Language : Spanish
Forced : No
Encoded date : UTC 2022-04-28 06:59:22
Tagged date : UTC 2022-04-28 06:59:22

Text #19
ID : 21
Format : Timed Text
Codec ID : tx3g
Duration : 1 h 36 min
Bit rate mode : Variable
Bit rate : 81 b/s
Stream size : 56.9 KiB (0%)
Title : Swedish
Language : Swedish
Forced : No
Encoded date : UTC 2022-04-28 06:59:22
Tagged date : UTC 2022-04-28 06:59:22

Text #20
ID : 22
Format : Timed Text
Codec ID : tx3g
Duration : 1 h 36 min
Bit rate mode : Variable
Bit rate : 82 b/s
Stream size : 57.5 KiB (0%)
Title : Turkish
Language : Turkish
Forced : No
Encoded date : UTC 2022-04-28 06:59:22
Tagged date : UTC 2022-04-28 06:59:22

Text #21
ID : 23
Format : Timed Text
Codec ID : tx3g
Duration : 1 h 36 min
Bit rate mode : Variable
Bit rate : 92 b/s
Stream size : 65.2 KiB (0%)
Title : Vietnamese
Language : Vietnamese
Forced : No
Encoded date : UTC 2022-04-28 06:59:22
Tagged date : UTC 2022-04-28 06:59:22

资源速度为零或资源敏感被和谐时,推荐使用qBittorrent等下载软件,有条件的推荐115更好的下载软件!

下载地址:

游客,如果您要查看本帖隐藏内容请回复

游客,如果您要查看本帖隐藏内容请回复

游客,如果您要查看本帖隐藏内容请回复

游客,如果您要查看本帖隐藏内容请回复





上一篇:7天 / Days (2021) 4K高清版本下载
下一篇:安娜玛德莲娜 (国语中字) Anna Madelina (1998) 4K高清版本下载
回复

使用道具 举报

3

主题

1704

帖子

4706

积分

4K家园VIP

Rank: 9Rank: 9Rank: 9

积分
4706
发表于 2022-4-28 19:47:00 来自手机 | 显示全部楼层
楼主呀,,,您太有才了。。。
回复 支持 反对

使用道具 举报

0

主题

8230

帖子

1万

积分

4K家园VIP

Rank: 9Rank: 9Rank: 9

积分
18830
发表于 2022-4-28 21:13:10 | 显示全部楼层
太好啦&萬分感謝版主的無私發佈分享%
回复 支持 反对

使用道具 举报

0

主题

1647

帖子

4571

积分

4K家园VIP

Rank: 9Rank: 9Rank: 9

积分
4571
发表于 2022-4-28 21:47:28 | 显示全部楼层
边撸边过
回复 支持 反对

使用道具 举报

3

主题

1385

帖子

3987

积分

4K家园VIP

Rank: 9Rank: 9Rank: 9

积分
3987
发表于 2022-4-28 22:22:05 | 显示全部楼层
回个帖子,下班咯~
回复 支持 反对

使用道具 举报

1

主题

1161

帖子

3503

积分

4K家园VIP

Rank: 9Rank: 9Rank: 9

积分
3503
发表于 2022-4-28 23:07:40 | 显示全部楼层
啊啊啊啊啊啊啊啊啊啊啊
回复 支持 反对

使用道具 举报

0

主题

1328

帖子

3996

积分

4K家园VIP

Rank: 9Rank: 9Rank: 9

积分
3996
发表于 2022-4-29 00:07:26 | 显示全部楼层
LZ是天才,坚定完毕
回复 支持 反对

使用道具 举报

0

主题

73

帖子

524

积分

4K家园VIP

Rank: 9Rank: 9Rank: 9

积分
524
发表于 2022-4-29 01:04:16 | 显示全部楼层
楼主辛苦了,谢谢楼主,感谢楼主分享,楼主好人一生平安!!!
回复 支持 反对

使用道具 举报

0

主题

1

帖子

6

积分

新手上路

Rank: 1

积分
6
发表于 2022-5-1 06:03:23 | 显示全部楼层

free online pron

free online pron
回复 支持 反对

使用道具 举报

您需要登录后才可以回帖 登录 | 立即注册

本版积分规则

精彩图文
Archiver|手机版|TAG|Sitemap|新帖|专题|联系我们:邮箱: 4kjia.com@gmail.com   

4k家园   ©2019