[4K电影] 安娜玛德莲娜 (国语中字) Anna Madelina (1998) 4K高清版本下载

[复制链接]

1733

主题

1866

帖子

1万

积分

超级版主

Rank: 8Rank: 8

积分
14095
 楼主| 发表于 2022-4-28 20:33:58 | 显示全部楼层 |阅读模式
QQ图片20220428203206_副本.png

◎译  名 安娜玛德莲娜 / 香港夜疯狂 / Anna Madelina / Anna Magdalena
◎片  名 安娜瑪德蓮娜
◎年  代 1998
◎产  地 中国香港
◎类  别 喜剧 / 爱情
◎语  言 粤语
◎上映日期 1998-05-28
◎IMDb评分  6.4/10 from 400 users
◎IMDb链接  https://www.imdb.com/title/tt0159251/
◎豆瓣评分 7.5/10 from 10133 users
◎豆瓣链接 https://movie.douban.com/subject/1301974/
◎片  长 97分钟
◎导  演 奚仲文 Chung-Man Hai
◎编  剧 岸西 Ivy Ho
◎演  员 金城武 Takeshi Kaneshiro
       郭富城 Aaron Kwok
       陈慧琳 Kelly Chen
       何超仪 Josie Ho
       袁咏仪 Anita Yuen
       张国荣 Leslie Cheung
       张学友 Jacky Cheung
       钟甄 Jessica Chung
       谢志华 Chi-Wah Tse
       许月珍 Jojo Hui Yuet-chun
       韦伟 Wei Wei
       古巨基 Leo Ku
       曾志伟 Eric Tsang
       谢家慧 Doris Tse
       赵增熹 Tsang-Hei Chiu
       鲍德熹 Peter Pau
       David Pun Chi Wai David Pun Chi Wai
       邓汝好 Pat Tang Yu-Ho
       许月珍 Jojo Hui Yuet-chun


◎简  介


  陈家富(金城武饰)是个调琴师,有点木讷的他每日过着重复的生活。某日,他和游牧人(郭富城饰)相遇,游牧人的生活居无定所,不是泡妞就是赌马,好心的陈家富收留了他。
某日,他俩的楼上搬来了一个喜欢弹巴赫爱的协奏曲的女生莫敏儿(陈慧琳饰),陈家富对其一见钟情,但是却始终无法对其表达自己的好感,很快,莫敏儿被游牧人捷足先登,两人成了一对。
最后,陈家富讲了个“XO侠侣”的故事,原来世界上的每个人都在寻找他的莫敏儿,运气好的找到了,运气不好的穷尽一生都找不到。爱情就是如此。

◎获奖情况 (共6项)

  第35届台北金马影展 (1998)
  金马奖 最佳原创配乐(提名)
   └──赵增熹
  金马奖 最佳原创歌曲(提名)

  第18届香港电影金像奖 (1999)
  最佳摄影(提名)
   └──鲍德熹
  最佳美术指导(提名)
   └──David Pun Chi Wai
  最佳服装造型设计(提名)
   └──吴里璐
  最佳原创电影音乐(提名)
   └──赵增熹

Video
ID : 1
Format : HEVC
Format/Info : High Efficiency Video Coding
Format profile : Main 10@L5@High
HDR format : SMPTE ST 2086, HDR10 compatible
Codec ID : V_MPEGH/ISO/HEVC
Duration : 1 h 37 min
Bit rate : 24.8 Mb/s
Width : 3 840 pixels
Height : 2 160 pixels
Display aspect ratio : 16:9
Frame rate mode : Constant
Frame rate : 24.000 FPS
Color space : YUV
Chroma subsampling : 4:2:0 (Type 2)
Bit depth : 10 bits
Bits/(Pixel*Frame) : 0.124
Stream size : 16.9 GiB (99%)
Default : Yes
Forced : No
Color range : Limited
Color primaries : BT.2020
Transfer characteristics : PQ
Matrix coefficients : BT.2020 non-constant
Mastering display color primaries : BT.2020
Mastering display luminance : min: 0.0050 cd/m2, max: 1000 cd/m2
Maximum Content Light Level : 542 cd/m2
Maximum Frame-Average Light Level : 227 cd/m2

Audio
ID : 2
Format : AAC LC
Format/Info : Advanced Audio Codec Low Complexity
Codec ID : A_AAC-2
Duration : 1 h 37 min
Bit rate : 159 kb/s
Channel(s) : 2 channels
Channel layout : L R
Sampling rate : 48.0 kHz
Frame rate : 46.875 FPS (1024 SPF)
Compression mode : Lossy
Stream size : 111 MiB (1%)
Language : Chinese
Default : Yes
Forced : No

Text #1
ID : 3
Format : UTF-8
Codec ID : S_TEXT/UTF8
Codec ID/Info : UTF-8 Plain Text
Duration : 1 h 33 min
Bit rate : 34 b/s
Count of elements : 833
Stream size : 23.8 KiB (0%)
Language : English
Default : Yes
Forced : No

Text #2
ID : 4
Format : UTF-8
Codec ID : S_TEXT/UTF8
Codec ID/Info : UTF-8 Plain Text
Duration : 1 h 31 min
Bit rate : 28 b/s
Count of elements : 797
Stream size : 18.9 KiB (0%)
Title : Simplified
Language : Chinese
Default : No
Forced : No

Text #3
ID : 5
Format : UTF-8
Codec ID : S_TEXT/UTF8
Codec ID/Info : UTF-8 Plain Text
Duration : 1 h 31 min
Bit rate : 28 b/s
Count of elements : 797
Stream size : 18.9 KiB (0%)
Title : Traditional
Language : Chinese
Default : No
Forced : No

资源速度为零或资源敏感被和谐时,推荐使用qBittorrent等下载软件,有条件的推荐115更好的下载软件!

下载地址:


游客,如果您要查看本帖隐藏内容请回复






上一篇:庄园夫人(内封繁体中字)/ Lady of the Manor (2021) 4K高清版本下载
下一篇:爱之彩 / Crush (2022) 4K高清版本下载
回复

使用道具 举报

1

主题

1344

帖子

4050

积分

4K家园VIP

Rank: 9Rank: 9Rank: 9

积分
4050
发表于 2022-4-28 20:34:03 来自手机 | 显示全部楼层
路过
回复 支持 反对

使用道具 举报

0

主题

8230

帖子

1万

积分

4K家园VIP

Rank: 9Rank: 9Rank: 9

积分
18830
发表于 2022-4-28 21:11:39 | 显示全部楼层
太好啦&萬分感謝版主的無私發佈分享%
回复 支持 反对

使用道具 举报

50

主题

1452

帖子

4166

积分

4K家园VIP

Rank: 9Rank: 9Rank: 9

积分
4166
发表于 2022-4-29 03:14:07 | 显示全部楼层
呵呵,低调,低调!
回复 支持 反对

使用道具 举报

1

主题

1598

帖子

4402

积分

4K家园VIP

Rank: 9Rank: 9Rank: 9

积分
4402
发表于 2022-4-29 18:04:05 | 显示全部楼层
秀起来~
回复 支持 反对

使用道具 举报

1

主题

1538

帖子

4462

积分

4K家园VIP

Rank: 9Rank: 9Rank: 9

积分
4462
发表于 2022-4-29 19:16:26 | 显示全部楼层
4K电影下个试试
回复 支持 反对

使用道具 举报

51

主题

1525

帖子

4381

积分

4K家园VIP

Rank: 9Rank: 9Rank: 9

积分
4381
发表于 2022-5-1 00:22:19 来自手机 | 显示全部楼层
感谢推荐,确实不错
回复 支持 反对

使用道具 举报

您需要登录后才可以回帖 登录 | 立即注册

本版积分规则

精彩图文
Archiver|手机版|TAG|Sitemap|新帖|专题|联系我们:邮箱: 4kjia.com@gmail.com   

4k家园   ©2019