[4K UHD 蓝光原盘] 里见八犬传 / Legend.of.Eight.Samurai (1983) 4K蓝光[原盘+REMUX]版本下载

[复制链接]

1565

主题

1634

帖子

1万

积分

超级版主

Rank: 8Rank: 8

积分
17500
 楼主| 发表于 2022-4-28 20:54:01 | 显示全部楼层 |阅读模式
QQ图片20220428204818_副本.png

◎译  名 里见八犬传/Legend of the Eight Samurai
◎片  名 里見八犬伝
◎年  代 1983
◎产  地 日本
◎类  别 剧情/动作/奇幻/冒险
◎语  言 日语
◎上映日期 1983-12-10
◎IMDb评分  6.4/10 from 1167 users
◎IMDb链接  https://www.imdb.com/title/tt0086244/
◎豆瓣评分 7.0/10 from 856 users
◎豆瓣链接 https://douban.com/subject/1421780/
◎片  长 136分钟
◎导  演 深作欣二 Kinji Fukasaku
◎编  剧 深作欣二 Kinji Fukasaku / 镰田敏夫 Toshio Kamata
◎主  演 药师丸博子 Hiroko Yakushimaru
       真田广之 Hiroyuki Sanada
       千叶真一 Sonny Chiba
       夏木真理 Mari Natsuki
       京本政树 Masaki Kyômoto
       志穗美悦子 Etsuko Shihomi
       寺田农 Minori Terada
       萩原流行 Nagare Hagiwara
       苅谷俊介 Shunsuke Kariya
       殿山泰司 Taiji Tonoyama
       大叶健二 Kenji Ohba
       冈田奈奈 Nana Okada
       福本清三 Seizo Fukumoto
       成田三树夫 Mikio Narita
       松坂庆子 Keiko Matsuzaka
       目黑祐树 Yuki Meguro
       山本亨 Akira Yamamoto


◎简  介


  根据日本著名文学家龙泽马琴的传奇小说《南总里见八犬传》改编。

  馆山城主里见成义之父征讨蟇田定包,蟇田之子素藤(目黑佑树 饰)及其母玉梓(夏木マリ 夏木玛丽 饰)侥幸存活,将灵魂献给恶灵,获得强大而邪恶的力量。数年后素藤带领暗黑军团杀入馆山城,将里见一族屠杀殆尽,唯成义之女静姬(药师丸博子 饰)逃脱。

  静姬于丛林中遇到犬江亲兵卫(真田广之 饰)、犬山道节(千叶真一 饰)和犬村大角(寺田农 饰)三人,从古老绘卷中得知需集结拥有仁、义、礼、智、忠、信、孝、悌八颗玉石的侠士方可打败素藤的暗黑军团。静姬四处奔走,找寻其余的“犬义士”,准备和暗黑军团展开最后一战……

Video
ID : 1
Format : HEVC
Format/Info : High Efficiency Video Coding
Commercial name : HDR10
Format profile : Main 10@L5.1@High
Codec ID : V_MPEGH/ISO/HEVC
Duration : 2 h 16 min
Bit rate : 49.7 Mb/s
Width : 3 840 pixels
Height : 2 076 pixels
Display aspect ratio : 1.85:1
Frame rate mode : Constant
Frame rate : 23.976 (24000/1001) FPS
Color space : YUV
Chroma subsampling : 4:2:0 (Type 2)
Bit depth : 10 bits
Bits/(Pixel*Frame) : 0.260
Stream size : 47.3 GiB (81%)
Title : Legend.of.Eight.Samurai.1983.JAPANESE.2160p.BluRay.x265.10bit.HDR.LPCM.DTS-HD.MA.5.1-SWTYBLZ
Writing library : x265 2.8+54-79c76e42cb28:[Windows][GCC 7.3.1][64 bit] 10bit
Encoding settings : cpuid=1111039 / frame-threads=16 / numa-pools=24,24,24,24 / wpp / no-pmode / no-pme / no-psnr / no-ssim / log-level=2 / input-csp=1 / input-res=3840x2076 / interlace=0 / total-frames=0 / level-idc=51 / high-tier=1 / uhd-bd=0 / ref=3 / no-allow-non-conformance / repeat-headers / annexb / aud / hrd / info / hash=0 / no-temporal-layers / no-open-gop / min-keyint=1 / keyint=24 / gop-lookahead=0 / bframes=4 / b-adapt=2 / b-pyramid / bframe-bias=0 / rc-lookahead=25 / lookahead-slices=4 / scenecut=40 / radl=0 / no-intra-refresh / ctu=64 / min-cu-size=8 / no-rect / no-amp / max-tu-size=32 / tu-inter-depth=1 / tu-intra-depth=1 / limit-tu=0 / rdoq-level=0 / dynamic-rd=0.00 / no-ssim-rd / signhide / no-tskip / nr-intra=0 / nr-inter=0 / no-constrained-intra / strong-intra-smoothing / max-merge=2 / limit-refs=3 / no-limit-modes / me=1 / subme=2 / merange=57 / temporal-mvp / weightp / no-weightb / no-analyze-src-pics / deblock=0:0 / no-sao / no-sao-non-deblock / rd=3 / no-early-skip / rskip / no-fast-intra / no-tskip-fast / no-cu-lossless / no-b-intra / no-splitrd-skip / rdpenalty=0 / psy-rd=2.00 / psy-rdoq=0.00 / no-rd-refine / no-lossless / cbqpoffs=0 / crqpoffs=0 / rc=crf / crf=16.0 / qcomp=0.60 / qpstep=4 / stats-write=0 / stats-read=0 / vbv-maxrate=160000 / vbv-bufsize=160000 / vbv-init=0.9 / crf-max=0.0 / crf-min=0.0 / ipratio=1.40 / pbratio=1.30 / aq-mode=1 / aq-strength=1.00 / cutree / zone-count=0 / no-strict-cbr / qg-size=32 / no-rc-grain / qpmax=69 / qpmin=0 / no-const-vbv / sar=1 / overscan=0 / videoformat=5 / range=0 / colorprim=9 / transfer=16 / colormatrix=9 / chromaloc=1 / chromaloc-top=2 / chromaloc-bottom=2 / display-window=0 / master-display=G(13250,34500)B(7500,3000)R(34000,16000)WP(15635,16450)L(10000000,000010) / max-cll=996,533 / min-luma=0 / max-luma=1023 / log2-max-poc-lsb=8 / vui-timing-info / vui-hrd-info / slices=1 / opt-qp-pps / opt-ref-list-length-pps / no-multi-pass-opt-rps / scenecut-bias=0.05 / no-opt-cu-delta-qp / no-aq-motion / hdr / hdr-opt / no-dhdr10-opt / no-idr-recovery-sei / analysis-reuse-level=5 / scale-factor=0 / refine-intra=0 / refine-inter=0 / refine-mv=0 / no-limit-sao / ctu-info=0 / no-lowpass-dct / refine-mv-type=0 / copy-pic=1 / max-ausize-factor=1.0 / no-dynamic-refine / no-single-sei
Default : Yes
Forced : No
Color range : Limited
Color primaries : BT.2020
Transfer characteristics : PQ
Matrix coefficients : BT.2020 non-constant
Mastering display color primaries : Display P3
Mastering display luminance : min: 0.0010 cd/m2, max: 1000 cd/m2
Maximum Content Light Level : 996 cd/m2
Maximum Frame-Average Light Level : 533 cd/m2

Audio #1
ID : 2
Format : PCM
Format settings : Little / Signed
Codec ID : A_PCM/INT/LIT
Duration : 2 h 16 min
Bit rate mode : Constant
Bit rate : 6 912 kb/s
Channel(s) : 6 channels
Sampling rate : 48.0 kHz
Frame rate : 200.000 FPS (240 SPF)
Bit depth : 24 bits
Stream size : 6.58 GiB (11%)
Title : Legend.of.Eight.Samurai.1983.JAPANESE.2160p.BluRay.x265.10bit.HDR.LPCM.DTS-HD.MA.5.1-SWTYBLZ
Language : Japanese
Default : Yes
Forced : No

Audio #2
ID : 3
Format : DTS XLL
Format/Info : Digital Theater Systems
Commercial name : DTS-HD Master Audio
Codec ID : A_DTS
Duration : 2 h 16 min
Bit rate mode : Variable
Bit rate : 4 372 kb/s
Channel(s) : 6 channels
Channel layout : C L R Ls Rs LFE
Sampling rate : 48.0 kHz
Frame rate : 93.750 FPS (512 SPF)
Bit depth : 24 bits
Compression mode : Lossless
Stream size : 4.16 GiB (7%)
Title : Legend.of.Eight.Samurai.1983.JAPANESE.2160p.BluRay.x265.10bit.HDR.LPCM.DTS-HD.MA.5.1-SWTYBLZ
Language : Japanese
Default : No
Forced : No

Audio #3
ID : 4
Format : AC-3
Format/Info : Audio Coding 3
Commercial name : Dolby Digital
Codec ID : A_AC3
Duration : 2 h 16 min
Bit rate mode : Constant
Bit rate : 640 kb/s
Channel(s) : 6 channels
Channel layout : L R C LFE Ls Rs
Sampling rate : 48.0 kHz
Frame rate : 31.250 FPS (1536 SPF)
Bit depth : 16 bits
Compression mode : Lossy
Stream size : 624 MiB (1%)
Title : Legend.of.Eight.Samurai.1983.JAPANESE.2160p.BluRay.x265.10bit.HDR.LPCM.DTS-HD.MA.5.1-SWTYBLZ
Language : Japanese
Service kind : Complete Main
Default : No
Forced : No

Text #1
ID : 5
Format : UTF-8
Codec ID : S_TEXT/UTF8
Codec ID/Info : UTF-8 Plain Text
Duration : 2 h 16 min
Bit rate : 24 b/s
Count of elements : 916
Stream size : 24.1 KiB (0%)
Title : English-SRT
Language : English
Default : Yes
Forced : No

Text #2
ID : 6
Format : PGS
Muxing mode : zlib
Codec ID : S_HDMV/PGS
Codec ID/Info : Picture based subtitle format used on BDs/HD-DVDs
Duration : 2 h 16 min
Bit rate : 107 kb/s
Count of elements : 6540
Stream size : 105 MiB (0%)
Title : Japanese-PGS
Language : Japanese
Default : No
Forced : No

Menu
00:00:00.000 : :Chapter 1
00:07:06.008 : :Chapter 2
00:14:26.282 : :Chapter 3
00:20:58.173 : :Chapter 4
00:27:27.520 : :Chapter 5
00:38:58.961 : :Chapter 6
00:51:53.193 : :Chapter 7
00:55:25.321 : :Chapter 8
00:59:06.960 : :Chapter 9
01:07:02.101 : :Chapter 10
01:19:24.301 : :Chapter 11
01:30:08.903 : :Chapter 12
01:36:56.268 : :Chapter 13
01:45:51.720 : :Chapter 14
02:05:50.751 : :Chapter 15
新种推荐使用qBittorrent、uTorrent等下载软件,有条件的推荐115更好的下载软件!


其他版本待补...

里见八犬传(58.91GB)Legend.of.Eight.Samurai.1983.JAPANESE.PROPER.2160p.UHD.BluRay.x265.10bit.HDR.LPCM.DTS-HD.MA.5.1-SWTYBLZ
游客,如果您要查看本帖隐藏内容请回复






4K QQ,爱心.gif

上一篇:神秘海域(意大利版本) / Uncharted (2022) 4K蓝光版本下载
下一篇:人狼恶 / Hunter Hunter (2020) 4K蓝光[原盘+REMUX]版本下载
回复

使用道具 举报

3

主题

1606

帖子

4414

积分

4K家园VIP

Rank: 9Rank: 9Rank: 9

积分
4414
发表于 2022-4-28 20:54:07 | 显示全部楼层
支持一下楼主,顶起来
回复 支持 反对

使用道具 举报

0

主题

8229

帖子

1万

积分

4K家园VIP

Rank: 9Rank: 9Rank: 9

积分
18818
发表于 2022-4-28 21:13:26 | 显示全部楼层
太好啦&萬分感謝版主的無私發佈分享%
回复 支持 反对

使用道具 举报

0

主题

344

帖子

2109

积分

注册会员

Rank: 2

积分
2109
发表于 2022-4-29 12:48:07 | 显示全部楼层
支持一下楼主
回复 支持 反对

使用道具 举报

3

主题

1703

帖子

4703

积分

4K家园VIP

Rank: 9Rank: 9Rank: 9

积分
4703
发表于 2022-5-3 00:31:27 来自手机 | 显示全部楼层
楼主这资源不错,我收藏了
回复 支持 反对

使用道具 举报

1

主题

1353

帖子

4087

积分

4K家园VIP

Rank: 9Rank: 9Rank: 9

积分
4087
发表于 2022-5-6 22:09:13 | 显示全部楼层
4K家园资源最近貌似越来越多了
回复 支持 反对

使用道具 举报

1

主题

1537

帖子

4459

积分

4K家园VIP

Rank: 9Rank: 9Rank: 9

积分
4459
发表于 2022-5-9 07:51:56 来自手机 | 显示全部楼层
4K家园资源不错,前排支持
回复 支持 反对

使用道具 举报

52

主题

1472

帖子

4246

积分

4K家园VIP

Rank: 9Rank: 9Rank: 9

积分
4246
发表于 2022-5-10 13:23:44 来自手机 | 显示全部楼层
4K家园资源最近貌似越来越多了
回复 支持 反对

使用道具 举报

您需要登录后才可以回帖 登录 | 立即注册

本版积分规则

精彩图文
Archiver|手机版|TAG|Sitemap|新帖|专题|联系我们:邮箱: 4kjia.com@gmail.com   

4k家园   ©2019