[4K电影] 爱之彩 / Crush (2022) 4K高清版本下载

[复制链接]

1733

主题

1866

帖子

1万

积分

超级版主

Rank: 8Rank: 8

积分
14095
 楼主| 发表于 2022-4-29 15:02:16 | 显示全部楼层 |阅读模式

QQ图片20220429150126_副本.png

◎译  名 爱之彩 / Love in Color
◎片  名 Crush
◎年  代 2022
◎产  地 美国
◎上映日期 2022-04-29(美国)
◎IMDb评分  0/10 from 1167 users
◎IMDb链接  https://www.imdb.com/title/tt15096128/
◎豆瓣评分 0/10 from 0 users
◎豆瓣链接 https://movie.douban.com/subject/35603695/
◎演  员 梅根·莫拉莉 Megan Mullally
       罗温·布兰查德 Rowan Blanchard
       泰勒·阿尔瓦雷兹 Tyler Alvarez
       奥丽伊·卡瓦洛 Auli'i Cravalho
       阿西夫·曼德维 Aasif Mandvi
       蜜雪儿·伯托 Michelle Buteau
       提亚拉·邓恩 Teala Dunn
       伊莎贝拉·费雷拉 Isabella Ferreira


◎简  介


  一位有抱负的年轻艺术家加入了她的高中田径队,后来发现自己爱上了一个意想不到的队友,这才是真爱的感觉。

Video
ID : 1
Format : HEVC
Format/Info : High Efficiency Video Coding
Format profile : Main 10@L5.1@Main
Codec ID : V_MPEGH/ISO/HEVC
Duration : 1 h 32 min
Bit rate : 15.2 Mb/s
Width : 3 840 pixels
Height : 2 160 pixels
Display aspect ratio : 16:9
Frame rate mode : Constant
Frame rate : 24.000 FPS
Color space : YUV
Chroma subsampling : 4:2:0
Bit depth : 10 bits
Bits/(Pixel*Frame) : 0.076
Stream size : 9.87 GiB (96%)
Default : Yes
Forced : No

Audio
ID : 2
Format : E-AC-3
Format/Info : Enhanced AC-3
Commercial name : Dolby Digital Plus
Codec ID : A_EAC3
Duration : 1 h 32 min
Bit rate mode : Constant
Bit rate : 256 kb/s
Channel(s) : 6 channels
Channel layout : L R C LFE Ls Rs
Sampling rate : 48.0 kHz
Frame rate : 31.250 FPS (1536 SPF)
Compression mode : Lossy
Stream size : 170 MiB (2%)
Language : English
Service kind : Complete Main
Default : Yes
Forced : No

Text #1
ID : 3
Format : UTF-8
Codec ID : S_TEXT/UTF8
Codec ID/Info : UTF-8 Plain Text
Title : English
Language : English
Default : No
Forced : No

Text #2
ID : 4
Format : UTF-8
Codec ID : S_TEXT/UTF8
Codec ID/Info : UTF-8 Plain Text
Title : English [SDH]
Language : English
Default : No
Forced : No

Text #3
ID : 5
Format : UTF-8
Codec ID : S_TEXT/UTF8
Codec ID/Info : UTF-8 Plain Text
Title : Spanish
Language : Spanish
Default : No
Forced : No

Text #4
ID : 6
Format : UTF-8
Codec ID : S_TEXT/UTF8
Codec ID/Info : UTF-8 Plain Text
Title : Spanish [SDH]
Language : Spanish
Default : No
Forced : No


资源速度为零或资源敏感被和谐时,推荐使用qBittorrent等下载软件,有条件的推荐115更好的下载软件!

下载地址:


游客,如果您要查看本帖隐藏内容请回复


.


上一篇:安娜玛德莲娜 (国语中字) Anna Madelina (1998) 4K高清版本下载
下一篇:我爱美国 / I Love America (2022) 4K高清版本下载
回复

使用道具 举报

56

主题

1485

帖子

4311

积分

4K家园VIP

Rank: 9Rank: 9Rank: 9

积分
4311
发表于 2022-4-29 15:02:20 | 显示全部楼层
沙发位出租,
回复 支持 反对

使用道具 举报

0

主题

8230

帖子

1万

积分

4K家园VIP

Rank: 9Rank: 9Rank: 9

积分
18830
发表于 2022-4-29 16:15:36 | 显示全部楼层
太好啦&萬分感謝版主的無私發佈分享%
回复 支持 反对

使用道具 举报

0

主题

29

帖子

125

积分

新手上路

Rank: 1

积分
125
发表于 2022-4-29 21:52:05 | 显示全部楼层
5555555555555
回复 支持 反对

使用道具 举报

0

主题

105

帖子

5768

积分

高级会员

Rank: 3Rank: 3

积分
5768
发表于 2022-4-30 02:35:36 | 显示全部楼层
感謝版主的無私發佈分享
回复 支持 反对

使用道具 举报

1

主题

1203

帖子

3631

积分

4K家园VIP

Rank: 9Rank: 9Rank: 9

积分
3631
发表于 2022-5-4 11:20:17 来自手机 | 显示全部楼层
回个帖子,下班咯~
回复 支持 反对

使用道具 举报

1

主题

1747

帖子

4849

积分

4K家园VIP

Rank: 9Rank: 9Rank: 9

积分
4849
发表于 2022-5-4 19:28:12 | 显示全部楼层
支持下楼主,顶一个
回复 支持 反对

使用道具 举报

40

主题

1496

帖子

4292

积分

4K家园VIP

Rank: 9Rank: 9Rank: 9

积分
4292
发表于 2022-5-5 16:53:23 | 显示全部楼层
高手云集 果断围观
回复 支持 反对

使用道具 举报

57

主题

1540

帖子

4470

积分

4K家园VIP

Rank: 9Rank: 9Rank: 9

积分
4470
发表于 2022-5-5 17:07:40 | 显示全部楼层
支持,赞一个
回复 支持 反对

使用道具 举报

0

主题

1

帖子

10

积分

新手上路

Rank: 1

积分
10
发表于 2022-5-8 06:17:51 | 显示全部楼层
谢谢谢谢谢谢谢谢谢谢谢谢
回复 支持 反对

使用道具 举报

您需要登录后才可以回帖 登录 | 立即注册

本版积分规则

精彩图文
Archiver|手机版|TAG|Sitemap|新帖|专题|联系我们:邮箱: 4kjia.com@gmail.com   

4k家园   ©2019