[4K电影] 我爱美国 / I Love America (2022) 4K高清版本下载

[复制链接]

1735

主题

1868

帖子

1万

积分

超级版主

Rank: 8Rank: 8

积分
14105
 楼主| 发表于 2022-4-29 20:37:54 | 显示全部楼层 |阅读模式

QQ图片20220429203438_副本.png

◎译  名 我爱美国
◎片  名 I Love America
◎年  代 2022
◎产  地 法国
◎类  别 喜剧
◎语  言 法语
◎上映日期 2022(美国)
◎IMDb评分  4.7/10 from 209 users
◎IMDb链接  https://www.imdb.com/title/tt14867318/
◎豆瓣评分 0/10 from 0 users
◎豆瓣链接 https://movie.douban.com/subject/35511397/
◎片  长 92分钟
◎导  演 丽萨·阿祖洛斯 Lisa Azuelos
◎编  剧 丽萨·阿祖洛斯 Lisa Azuelos
◎演  员 苏菲·玛索 Sophie Marceau
                  贾尼斯·布扎尼 Djanis Bouzyani
                  科林·伍德尔 Colin Woodell
                  爱丽丝·里乌·德拉巴里埃 Alice Riu de Labarrière
                  塞琳娜·安德里 Selena Andrié
                  索尔·本切特里特 Saul Benchetrit
                  索菲·韦贝克 Sophie Verbeeck
                  西鲁斯·沙希迪 Syrus Shahidi
                  佛罗伦萨·维拉 Florence Viala ,
                  休伯特·本哈姆丁 Hubert Benhamdine
                  宁讷·杜雨索 Nine d'Urso
                  泰斯·亚历山德林 Thaïs Alessandrin
                  凯瑟琳·达维尼尔 Catherine Davenier
                  皮埃尔·迪奥 Pierre Diot
                  亚娜·波波娃 Yana Popova
                  奥利维尔·克拉斯克·罗森 Olivier Krasker-Rosen
                  大卫·欧文 David Owe
                  卡德尔·卡达 Kader Kada
                  马丁娜·帕斯卡 Martine Pascal
                  卡莱斯·伯克 Carlease Burke



◎简  介


  苏菲·玛索饰演的单身女性丽莎,决定为爱再次冒险,将自己的生活从巴黎转向洛杉矶,而在那里的一切充满着不可思议。

Video
ID : 1
Format : HEVC
Format/Info : High Efficiency Video Coding
Format profile : Main 10@L5@Main
HDR format : SMPTE ST 2094 App 4, Version 1, HDR10+ Profile B compatible
Codec ID : V_MPEGH/ISO/HEVC
Duration : 1 h 43 min
Bit rate : 14.9 Mb/s
Width : 3 840 pixels
Height : 1 600 pixels
Display aspect ratio : 2.40:1
Frame rate mode : Constant
Frame rate : 24.000 FPS
Color space : YUV
Chroma subsampling : 4:2:0
Bit depth : 10 bits
Bits/(Pixel*Frame) : 0.101
Stream size : 10.8 GiB (96%)
Language : French
Default : Yes
Forced : No
Color range : Limited
Color primaries : BT.2020
Transfer characteristics : PQ
Matrix coefficients : BT.2020 non-constant
Mastering display color primaries : Display P3
Mastering display luminance : min: 0.0001 cd/m2, max: 1000 cd/m2
Maximum Content Light Level : 965 cd/m2
Maximum Frame-Average Light Level : 499 cd/m2

Audio
ID : 2
Format : E-AC-3
Format/Info : Enhanced AC-3
Commercial name : Dolby Digital Plus
Codec ID : A_EAC3
Duration : 1 h 43 min
Bit rate mode : Constant
Bit rate : 640 kb/s
Channel(s) : 6 channels
Channel layout : L R C LFE Ls Rs
Sampling rate : 48.0 kHz
Frame rate : 31.250 FPS (1536 SPF)
Compression mode : Lossy
Stream size : 475 MiB (4%)
Language : French
Service kind : Complete Main
Default : Yes
Forced : No

Text #1
ID : 3
Format : UTF-8
Codec ID : S_TEXT/UTF8
Codec ID/Info : UTF-8 Plain Text
Duration : 1 h 37 min
Bit rate : 26 b/s
Count of elements : 681
Stream size : 18.8 KiB (0%)
Title : Forced
Language : French
Default : Yes
Forced : Yes

Text #2
ID : 4
Format : UTF-8
Codec ID : S_TEXT/UTF8
Codec ID/Info : UTF-8 Plain Text
Duration : 1 h 42 min
Bit rate : 63 b/s
Count of elements : 1550
Stream size : 47.8 KiB (0%)
Language : French
Default : No
Forced : No

Text #3
ID : 5
Format : UTF-8
Codec ID : S_TEXT/UTF8
Codec ID/Info : UTF-8 Plain Text
Duration : 1 h 43 min
Bit rate : 70 b/s
Count of elements : 1734
Stream size : 53.6 KiB (0%)
Title : SDH
Language : French
Default : No
Forced : No

Text #4
ID : 6
Format : UTF-8
Codec ID : S_TEXT/UTF8
Codec ID/Info : UTF-8 Plain Text
Duration : 1 h 43 min
Bit rate : 61 b/s
Count of elements : 1501
Stream size : 46.8 KiB (0%)
Language : German
Default : No
Forced : No

Text #5
ID : 7
Format : UTF-8
Codec ID : S_TEXT/UTF8
Codec ID/Info : UTF-8 Plain Text
Duration : 1 h 41 min
Bit rate : 37 b/s
Count of elements : 859
Stream size : 28.0 KiB (0%)
Language : English
Default : No
Forced : No

Text #6
ID : 8
Format : UTF-8
Codec ID : S_TEXT/UTF8
Codec ID/Info : UTF-8 Plain Text
Duration : 1 h 43 min
Bit rate : 62 b/s
Count of elements : 1504
Stream size : 47.5 KiB (0%)
Language : Spanish
Default : No
Forced : No

Text #7
ID : 9
Format : UTF-8
Codec ID : S_TEXT/UTF8
Codec ID/Info : UTF-8 Plain Text
Duration : 1 h 43 min
Bit rate : 61 b/s
Count of elements : 1518
Stream size : 46.3 KiB (0%)
Language : Italian
Default : No
Forced : No

Menu
00:00:00.000 : en:Amazon Original
00:00:06.000 : en:Scene 2
00:02:41.000 : en:Scene 3
00:05:48.000 : en:Scene 4
00:09:33.000 : en:Scene 5
00:11:01.000 : en:Scene 6
00:15:06.000 : en:Scene 7
00:18:28.000 : en:Scene 8
00:18:57.000 : en:Scene 9
00:21:48.000 : en:Scene 10
00:24:44.000 : en:Scene 11
00:26:44.000 : en:Scene 12
00:33:21.000 : en:Scene 13
00:35:19.000 : en:Scene 14
00:37:53.000 : en:Scene 15
00:39:10.000 : en:Scene 16
00:40:06.000 : en:Scene 17
00:45:00.000 : en:Scene 18
00:46:42.000 : en:Scene 19
00:50:23.000 : en:Scene 20
00:51:26.000 : en:Scene 21
00:53:24.000 : en:Scene 22
00:57:33.000 : en:Scene 23
00:59:22.000 : en:Scene 24
01:01:10.000 : en:Scene 25
01:02:21.000 : en:Scene 26
01:02:51.000 : en:Scene 27
01:09:18.000 : en:Scene 28
01:10:21.000 : en:Scene 29
01:11:55.000 : en:Scene 30
01:14:00.000 : en:Scene 31
01:17:02.000 : en:Scene 32
01:18:19.000 : en:Scene 33
01:21:40.000 : en:Scene 34
01:25:49.000 : en:Scene 35
01:29:13.000 : en:Scene 36
01:36:23.000 : en:Scene 37
01:37:19.000 : en:End Credits


资源速度为零或资源敏感被和谐时,推荐使用qBittorrent等下载软件,有条件的推荐115更好的下载软件!

下载地址


游客,如果您要查看本帖隐藏内容请回复



.

上一篇:爱之彩 / Crush (2022) 4K高清版本下载
下一篇:长津湖之水门桥[纯净版] (国语中字) (2022) 4K高清版本下载
回复

使用道具 举报

2

主题

1569

帖子

4279

积分

4K家园VIP

Rank: 9Rank: 9Rank: 9

积分
4279
发表于 2022-4-29 20:38:00 | 显示全部楼层
楼猪V5啊
回复 支持 反对

使用道具 举报

0

主题

57

帖子

129

积分

新手上路

Rank: 1

积分
129
发表于 2022-4-29 21:06:33 | 显示全部楼层
感谢楼主分享,我默默顶一下,楼主再接再厉!
回复 支持 反对

使用道具 举报

0

主题

1724

帖子

4686

积分

4K家园VIP

Rank: 9Rank: 9Rank: 9

积分
4686
发表于 2022-4-30 00:13:47 | 显示全部楼层
我了个去,顶了
回复 支持 反对

使用道具 举报

46

主题

1440

帖子

4148

积分

4K家园VIP

Rank: 9Rank: 9Rank: 9

积分
4148
发表于 2022-4-30 04:53:29 来自手机 | 显示全部楼层
围观 围观 沙发在哪里!!!
回复 支持 反对

使用道具 举报

67

主题

1544

帖子

4450

积分

4K家园VIP

Rank: 9Rank: 9Rank: 9

积分
4450
发表于 2022-4-30 07:22:38 | 显示全部楼层
看起来不错
回复 支持 反对

使用道具 举报

3

主题

1381

帖子

4167

积分

4K家园VIP

Rank: 9Rank: 9Rank: 9

积分
4167
发表于 2022-4-30 08:32:14 | 显示全部楼层
佩服佩服!
回复 支持 反对

使用道具 举报

0

主题

2

帖子

9

积分

新手上路

Rank: 1

积分
9
发表于 2022-5-1 07:09:26 | 显示全部楼层
看看内容
回复

使用道具 举报

您需要登录后才可以回帖 登录 | 立即注册

本版积分规则

精彩图文
Archiver|手机版|TAG|Sitemap|新帖|专题|联系我们:邮箱: 4kjia.com@gmail.com   

4k家园   ©2019