弹子球游戏(内嵌简繁中字)(2022)/第一季全8集/4K高清版本下载

[复制链接]

129

主题

148

帖子

1452

积分

版主

Rank: 7Rank: 7Rank: 7

积分
1452
 楼主| 发表于 2022-4-29 21:20:37 | 显示全部楼层 |阅读模式
本帖最后由 叽里呱啦 于 2022-4-30 09:28 编辑

p2868773347_副本.png

◎译  名 弹子球游戏/柏青哥
◎片  名 Pachinko
◎年  代 2022
◎产  地 美国
◎类  别 剧情
◎语  言 英语/韩语/日语
◎上映日期 2022-03-25(美国)
◎IMDb评分  8.6/10 from 2837 users
◎IMDb链接  https://www.imdb.com/title/tt8888462/
◎豆瓣评分 8.3/10 from 4436 users
◎豆瓣链接 https://movie.douban.com/subject/30489824/
◎集  数 8
◎片  长 55分钟
◎导  演 郭共达 Kogonada / 全知泰 Justin Chon
◎编  剧 秀·休 Soo Hugh / 李珉真 Min Jin Lee / 汉索·郑 Hansol Jung / 马修·J·麦凯 Matthew J. McCue / 富兰克林·金·罗 Franklin jin Rho /高恩智 E.J. Koh
◎主  演 尹汝贞 Yeo-jeong Yoon
       李敏镐 Min-ho Lee
       金敏荷 MinhaKim
       哈金 Jin Ha
       泽井杏奈 Anna Sawai
       郑恩彩 Eun-Chae Jeong
       南果步 Kaho Minami
       朴秀熙 Sohee Park
       玛丽·亚马莫托 Mari Yamamoto
       马丁·马丁内兹 Martin Martinez
       美秀铃木 Miho Suzuki
       吉米·本内特 Jimmy Bennett
       凯丽·科纳佩 Kerry Knuppe
       鲍勃·弗雷泽 Bob Frazer
       玛德琳·格蕾丝 Madelyn Grace
       顺子 贝莉 Junko Bailey
       吉米·辛普森 Jimmi Simpson
       秀·休 Soo Hugh
       卢尚贤 Steve Noh
       郑雄仁 Woong-in Jeong
       朴惠珍 Hye-jin Park
       路易斯·小泽·张简 Louis Ozawa Changchien


◎简  介


  剧讲述了历经四代的韩国移民家庭的故事。故事始于一段禁忌的爱恋,并扩展为跨越韩国、日本与美国三地,关于希望与梦想、和平、爱与失落、胜利与算计的史诗传奇。
  从朝鲜到日本,四代移民家庭的恩怨纠葛,大时代的巨光照在每一个小人物的身上,都留下了一道崎岖的阴影,生生地拖着他们的躯体前行。从1920年日本殖民时期的韩国渔村,到日本大阪,经历了二战和朝鲜战争,一直到90年代末日本泡沫经济时代的横滨和东京乃至纽约。在这样复杂的历史背景下,全剧着重描绘了几代人在家族与故乡、融入与归属、金钱与信仰等一系列问题上的关系与矛盾。

Video
ID : 1
Format : HEVC
Format/Info : High Efficiency Video Coding
Format profile : Main 10@L5@High
HDR format : SMPTE ST 2086, HDR10 compatible
Codec ID : V_MPEGH/ISO/HEVC
Duration : 1 h 3 min
Bit rate : 24.1 Mb/s
Width : 3 840 pixels
Height : 1 746 pixels
Display aspect ratio : 2.2:1
Frame rate mode : Constant
Frame rate : 23.976 (24000/1001) FPS
Color space : YUV
Chroma subsampling : 4:2:0 (Type 2)
Bit depth : 10 bits
Bits/(Pixel*Frame) : 0.150
Stream size : 10.7 GiB (97%)
Language : Korean
Default : Yes
Forced : No
Color range : Limited
Color primaries : BT.2020
Transfer characteristics : PQ
Matrix coefficients : BT.2020 non-constant
Mastering display color primaries : Display P3
Mastering display luminance : min: 0.0050 cd/m2, max: 1000 cd/m2
Maximum Content Light Level : 2203 cd/m2
Maximum Frame-Average Light Level : 128 cd/m2

Audio
ID : 2
Format : E-AC-3 JOC
Format/Info : Enhanced AC-3 with Joint Object Coding
Commercial name : Dolby Digital Plus with Dolby Atmos
Codec ID : A_EAC3
Duration : 1 h 3 min
Bit rate mode : Constant
Bit rate : 768 kb/s
Channel(s) : 6 channels
Channel layout : L R C LFE Ls Rs
Sampling rate : 48.0 kHz
Frame rate : 31.250 FPS (1536 SPF)
Compression mode : Lossy
Stream size : 349 MiB (3%)
Language : Korean
Service kind : Complete Main
Default : Yes
Forced : No
Complexity index : 16
Number of dynamic objects : 15
Bed channel count : 1 channel
Bed channel configuration : LFE

Text #1
ID : 3
Format : UTF-8
Codec ID : S_TEXT/UTF8
Codec ID/Info : UTF-8 Plain Text
Duration : 1 h 2 min
Bit rate : 42 b/s
Count of elements : 689
Stream size : 19.3 KiB (0%)
Title : English (forced)
Language : English
Default : Yes
Forced : Yes

Text #2
ID : 4
Format : UTF-8
Codec ID : S_TEXT/UTF8
Codec ID/Info : UTF-8 Plain Text
Duration : 1 h 2 min
Bit rate : 51 b/s
Count of elements : 798
Stream size : 23.4 KiB (0%)
Title : English (SDH)
Language : English
Default : No
Forced : No

Text #3
ID : 5
Format : UTF-8
Codec ID : S_TEXT/UTF8
Codec ID/Info : UTF-8 Plain Text
Duration : 1 h 3 min
Bit rate : 49 b/s
Count of elements : 704
Stream size : 22.9 KiB (0%)
Title : 한국어
Language : Korean
Default : No
Forced : No

Text #4
ID : 6
Format : UTF-8
Codec ID : S_TEXT/UTF8
Codec ID/Info : UTF-8 Plain Text
Duration : 1 h 3 min
Bit rate : 57 b/s
Count of elements : 711
Stream size : 26.5 KiB (0%)
Title : العربية
Language : Arabic
Default : No
Forced : No

Text #5
ID : 7
Format : UTF-8
Codec ID : S_TEXT/UTF8
Codec ID/Info : UTF-8 Plain Text
Duration : 1 h 3 min
Bit rate : 66 b/s
Count of elements : 711
Stream size : 30.8 KiB (0%)
Title : български
Language : Bulgarian
Default : No
Forced : No

Text #6
ID : 8
Format : UTF-8
Codec ID : S_TEXT/UTF8
Codec ID/Info : UTF-8 Plain Text
Duration : 1 h 3 min
Bit rate : 39 b/s
Count of elements : 706
Stream size : 18.4 KiB (0%)
Title : Čeština
Language : Czech
Default : No
Forced : No

Text #7
ID : 9
Format : UTF-8
Codec ID : S_TEXT/UTF8
Codec ID/Info : UTF-8 Plain Text
Duration : 1 h 3 min
Bit rate : 44 b/s
Count of elements : 700
Stream size : 20.4 KiB (0%)
Title : dansk
Language : Danish
Default : No
Forced : No

Text #8
ID : 10
Format : UTF-8
Codec ID : S_TEXT/UTF8
Codec ID/Info : UTF-8 Plain Text
Duration : 1 h 3 min
Bit rate : 47 b/s
Count of elements : 715
Stream size : 22.0 KiB (0%)
Title : Deutsch
Language : German
Default : No
Forced : No

Text #9
ID : 11
Format : UTF-8
Codec ID : S_TEXT/UTF8
Codec ID/Info : UTF-8 Plain Text
Duration : 1 h 3 min
Bit rate : 73 b/s
Count of elements : 712
Stream size : 34.0 KiB (0%)
Title : Ελληνικά
Language : Greek
Default : No
Forced : No

Text #10
ID : 12
Format : UTF-8
Codec ID : S_TEXT/UTF8
Codec ID/Info : UTF-8 Plain Text
Duration : 1 h 3 min
Bit rate : 47 b/s
Count of elements : 709
Stream size : 21.9 KiB (0%)
Title : Español (España)
Language : Spanish
Default : No
Forced : No

Text #11
ID : 13
Format : UTF-8
Codec ID : S_TEXT/UTF8
Codec ID/Info : UTF-8 Plain Text
Duration : 1 h 3 min
Bit rate : 44 b/s
Count of elements : 698
Stream size : 20.4 KiB (0%)
Title : Español (Latinoamérica)
Language : Spanish
Default : No
Forced : No

Text #12
ID : 14
Format : UTF-8
Codec ID : S_TEXT/UTF8
Codec ID/Info : UTF-8 Plain Text
Duration : 1 h 3 min
Bit rate : 40 b/s
Count of elements : 701
Stream size : 18.7 KiB (0%)
Title : eesti
Language : Estonian
Default : No
Forced : No

Text #13
ID : 15
Format : UTF-8
Codec ID : S_TEXT/UTF8
Codec ID/Info : UTF-8 Plain Text
Duration : 1 h 3 min
Bit rate : 42 b/s
Count of elements : 701
Stream size : 19.5 KiB (0%)
Title : Suomi
Language : Finnish
Default : No
Forced : No

Text #14
ID : 16
Format : UTF-8
Codec ID : S_TEXT/UTF8
Codec ID/Info : UTF-8 Plain Text
Duration : 1 h 2 min
Bit rate : 51 b/s
Count of elements : 845
Stream size : 23.3 KiB (0%)
Title : Français (Canada)
Language : French
Default : No
Forced : No

Text #15
ID : 17
Format : UTF-8
Codec ID : S_TEXT/UTF8
Codec ID/Info : UTF-8 Plain Text
Duration : 1 h 2 min
Bit rate : 51 b/s
Count of elements : 845
Stream size : 23.3 KiB (0%)
Title : Français (France)
Language : French
Default : No
Forced : No

Text #16
ID : 18
Format : UTF-8
Codec ID : S_TEXT/UTF8
Codec ID/Info : UTF-8 Plain Text
Duration : 1 h 3 min
Bit rate : 57 b/s
Count of elements : 711
Stream size : 26.5 KiB (0%)
Title : עברית
Language : Hebrew
Default : No
Forced : No

Text #17
ID : 19
Format : UTF-8
Codec ID : S_TEXT/UTF8
Codec ID/Info : UTF-8 Plain Text
Duration : 1 h 3 min
Bit rate : 112 b/s
Count of elements : 712
Stream size : 52.4 KiB (0%)
Title : हिन्दी
Language : Hindi
Default : No
Forced : No

Text #18
ID : 20
Format : UTF-8
Codec ID : S_TEXT/UTF8
Codec ID/Info : UTF-8 Plain Text
Duration : 1 h 3 min
Bit rate : 44 b/s
Count of elements : 712
Stream size : 20.6 KiB (0%)
Title : magyar
Language : Hungarian
Default : No
Forced : No

Text #19
ID : 21
Format : UTF-8
Codec ID : S_TEXT/UTF8
Codec ID/Info : UTF-8 Plain Text
Duration : 1 h 3 min
Bit rate : 42 b/s
Count of elements : 702
Stream size : 19.4 KiB (0%)
Title : Bahasa Indonesia
Language : Indonesian
Default : No
Forced : No

Text #20
ID : 22
Format : UTF-8
Codec ID : S_TEXT/UTF8
Codec ID/Info : UTF-8 Plain Text
Duration : 1 h 3 min
Bit rate : 44 b/s
Count of elements : 703
Stream size : 20.5 KiB (0%)
Title : Italiano
Language : Italian
Default : No
Forced : No

Text #21
ID : 23
Format : UTF-8
Codec ID : S_TEXT/UTF8
Codec ID/Info : UTF-8 Plain Text
Duration : 1 h 3 min
Bit rate : 57 b/s
Count of elements : 795
Stream size : 26.5 KiB (0%)
Title : 日本語
Language : Japanese
Default : No
Forced : No

Text #22
ID : 24
Format : UTF-8
Codec ID : S_TEXT/UTF8
Codec ID/Info : UTF-8 Plain Text
Duration : 1 h 3 min
Bit rate : 43 b/s
Count of elements : 711
Stream size : 20.0 KiB (0%)
Title : lietuvių
Language : Lithuanian
Default : No
Forced : No

Text #23
ID : 25
Format : UTF-8
Codec ID : S_TEXT/UTF8
Codec ID/Info : UTF-8 Plain Text
Duration : 1 h 3 min
Bit rate : 43 b/s
Count of elements : 700
Stream size : 20.2 KiB (0%)
Title : latviešu
Language : Latvian
Default : No
Forced : No

Text #24
ID : 26
Format : UTF-8
Codec ID : S_TEXT/UTF8
Codec ID/Info : UTF-8 Plain Text
Duration : 1 h 3 min
Bit rate : 42 b/s
Count of elements : 702
Stream size : 19.8 KiB (0%)
Title : Bahasa Melayu
Language : Malay
Default : No
Forced : No

Text #25
ID : 27
Format : UTF-8
Codec ID : S_TEXT/UTF8
Codec ID/Info : UTF-8 Plain Text
Duration : 1 h 3 min
Bit rate : 41 b/s
Count of elements : 695
Stream size : 19.2 KiB (0%)
Title : Nederlands
Language : Dutch
Default : No
Forced : No

Text #26
ID : 28
Format : UTF-8
Codec ID : S_TEXT/UTF8
Codec ID/Info : UTF-8 Plain Text
Duration : 1 h 3 min
Bit rate : 41 b/s
Count of elements : 700
Stream size : 19.0 KiB (0%)
Title : norsk
Language : Norwegian
Default : No
Forced : No

Text #27
ID : 29
Format : UTF-8
Codec ID : S_TEXT/UTF8
Codec ID/Info : UTF-8 Plain Text
Duration : 1 h 3 min
Bit rate : 41 b/s
Count of elements : 697
Stream size : 19.4 KiB (0%)
Title : polski
Language : Polish
Default : No
Forced : No

Text #28
ID : 30
Format : UTF-8
Codec ID : S_TEXT/UTF8
Codec ID/Info : UTF-8 Plain Text
Duration : 1 h 3 min
Bit rate : 44 b/s
Count of elements : 702
Stream size : 20.6 KiB (0%)
Title : Português (Brasil)
Language : Portuguese
Default : No
Forced : No

Text #29
ID : 31
Format : UTF-8
Codec ID : S_TEXT/UTF8
Codec ID/Info : UTF-8 Plain Text
Duration : 1 h 3 min
Bit rate : 42 b/s
Count of elements : 703
Stream size : 19.8 KiB (0%)
Title : Português
Language : Portuguese
Default : No
Forced : No

Text #30
ID : 32
Format : UTF-8
Codec ID : S_TEXT/UTF8
Codec ID/Info : UTF-8 Plain Text
Duration : 1 h 3 min
Bit rate : 76 b/s
Count of elements : 728
Stream size : 35.7 KiB (0%)
Title : Русский
Language : Russian
Default : No
Forced : No

Text #31
ID : 33
Format : UTF-8
Codec ID : S_TEXT/UTF8
Codec ID/Info : UTF-8 Plain Text
Duration : 1 h 3 min
Bit rate : 40 b/s
Count of elements : 710
Stream size : 18.7 KiB (0%)
Title : Slovenčina
Language : Slovak
Default : No
Forced : No

Text #32
ID : 34
Format : UTF-8
Codec ID : S_TEXT/UTF8
Codec ID/Info : UTF-8 Plain Text
Duration : 1 h 3 min
Bit rate : 37 b/s
Count of elements : 709
Stream size : 17.2 KiB (0%)
Title : slovenščina
Language : Slovenian
Default : No
Forced : No

Text #33
ID : 35
Format : UTF-8
Codec ID : S_TEXT/UTF8
Codec ID/Info : UTF-8 Plain Text
Duration : 1 h 3 min
Bit rate : 44 b/s
Count of elements : 700
Stream size : 20.5 KiB (0%)
Title : Svenska
Language : Swedish
Default : No
Forced : No

Text #34
ID : 36
Format : UTF-8
Codec ID : S_TEXT/UTF8
Codec ID/Info : UTF-8 Plain Text
Duration : 1 h 3 min
Bit rate : 144 b/s
Count of elements : 711
Stream size : 67.0 KiB (0%)
Title : தமிழ்
Language : Tamil
Default : No
Forced : No

Text #35
ID : 37
Format : UTF-8
Codec ID : S_TEXT/UTF8
Codec ID/Info : UTF-8 Plain Text
Duration : 1 h 3 min
Bit rate : 121 b/s
Count of elements : 711
Stream size : 56.3 KiB (0%)
Title : తెలుగు
Language : Telugu
Default : No
Forced : No

Text #36
ID : 38
Format : UTF-8
Codec ID : S_TEXT/UTF8
Codec ID/Info : UTF-8 Plain Text
Duration : 1 h 3 min
Bit rate : 111 b/s
Count of elements : 711
Stream size : 51.7 KiB (0%)
Title : ไทย
Language : Thai
Default : No
Forced : No

Text #37
ID : 39
Format : UTF-8
Codec ID : S_TEXT/UTF8
Codec ID/Info : UTF-8 Plain Text
Duration : 1 h 3 min
Bit rate : 51 b/s
Count of elements : 701
Stream size : 23.7 KiB (0%)
Title : Tagalog
Language : Tagalog
Default : No
Forced : No

Text #38
ID : 40
Format : UTF-8
Codec ID : S_TEXT/UTF8
Codec ID/Info : UTF-8 Plain Text
Duration : 1 h 3 min
Bit rate : 42 b/s
Count of elements : 702
Stream size : 19.6 KiB (0%)
Title : Türkçe
Language : Turkish
Default : No
Forced : No

Text #39
ID : 41
Format : UTF-8
Codec ID : S_TEXT/UTF8
Codec ID/Info : UTF-8 Plain Text
Duration : 1 h 3 min
Bit rate : 64 b/s
Count of elements : 712
Stream size : 30.0 KiB (0%)
Title : українська
Language : Ukrainian
Default : No
Forced : No

Text #40
ID : 42
Format : UTF-8
Codec ID : S_TEXT/UTF8
Codec ID/Info : UTF-8 Plain Text
Duration : 1 h 3 min
Bit rate : 53 b/s
Count of elements : 702
Stream size : 24.9 KiB (0%)
Title : Tiếng Việt
Language : Vietnamese
Default : No
Forced : No

Text #41
ID : 43
Format : UTF-8
Codec ID : S_TEXT/UTF8
Codec ID/Info : UTF-8 Plain Text
Duration : 1 h 3 min
Bit rate : 37 b/s
Count of elements : 712
Stream size : 17.5 KiB (0%)
Title : 粤语
Language : 中文
Default : No
Forced : No

Text #42
ID : 44
Format : UTF-8
Codec ID : S_TEXT/UTF8
Codec ID/Info : UTF-8 Plain Text
Duration : 1 h 3 min
Bit rate : 40 b/s
Count of elements : 712
Stream size : 18.9 KiB (0%)
Title : 中文(繁體)
Language : 中文
Default : No
Forced : No

Text #43
ID : 45
Format : UTF-8
Codec ID : S_TEXT/UTF8
Codec ID/Info : UTF-8 Plain Text
Duration : 1 h 3 min
Bit rate : 37 b/s
Count of elements : 711
Stream size : 17.4 KiB (0%)
Title : 中文(简体)
Language : 中文
Default : No
Forced : No

下载地址:

游客,如果您要查看本帖隐藏内容请回复

游客,如果您要查看本帖隐藏内容请回复

游客,如果您要查看本帖隐藏内容请回复

游客,如果您要查看本帖隐藏内容请回复








上一篇:美剧《光环》第一季全九集,更新至第8集
下一篇:流人 (内嵌简繁中字) (2022)/ 第一季全6集/4K高清版本下载
回复

使用道具 举报

48

主题

1592

帖子

4592

积分

4K家园VIP

Rank: 9Rank: 9Rank: 9

积分
4592
发表于 2022-4-29 21:21:16 | 显示全部楼层
嘘,低调。
回复 支持 反对

使用道具 举报

57

主题

1537

帖子

4469

积分

4K家园VIP

Rank: 9Rank: 9Rank: 9

积分
4469
发表于 2022-4-29 22:26:12 | 显示全部楼层
大人,此事必有蹊跷!
回复 支持 反对

使用道具 举报

4

主题

1354

帖子

4073

积分

4K家园VIP

Rank: 9Rank: 9Rank: 9

积分
4073
发表于 2022-5-1 06:53:56 | 显示全部楼层
我也是坐沙发的
回复 支持 反对

使用道具 举报

0

主题

26

帖子

194

积分

新手上路

Rank: 1

积分
194
发表于 2022-5-1 16:48:02 | 显示全部楼层
谢谢楼主分享
回复 支持 反对

使用道具 举报

3

主题

1295

帖子

3907

积分

4K家园VIP

Rank: 9Rank: 9Rank: 9

积分
3907
发表于 2022-5-2 13:42:46 | 显示全部楼层
锄禾日当午,发帖真辛苦。谁知坛中餐,帖帖皆辛苦!
回复 支持 反对

使用道具 举报

5

主题

1489

帖子

4311

积分

4K家园VIP

Rank: 9Rank: 9Rank: 9

积分
4311
发表于 2022-5-2 19:03:59 | 显示全部楼层
前排顶,很好!
回复 支持 反对

使用道具 举报

0

主题

26

帖子

194

积分

新手上路

Rank: 1

积分
194
发表于 2022-5-5 23:21:56 | 显示全部楼层
谢谢楼主分享
回复 支持 反对

使用道具 举报

您需要登录后才可以回帖 登录 | 立即注册

本版积分规则

精彩图文
Archiver|手机版|TAG|Sitemap|新帖|专题|联系我们:邮箱: 4kjia.com@gmail.com   

4k家园   ©2019