流人 (内嵌简繁中字) (2022)/ 第一季全6集/4K高清版本下载

[复制链接]

130

主题

149

帖子

1459

积分

版主

Rank: 7Rank: 7Rank: 7

积分
1459
 楼主| 发表于 2022-4-29 21:46:54 | 显示全部楼层 |阅读模式
p2870354335_副本.png

◎译  名 流人 第一季/慢马/下等马
◎片  名 Slow Horses Season 1
◎年  代 2022
◎产  地 美国/英国
◎类  别 剧情/惊悚
◎语  言 英语
◎上映日期 2022-04-01(英国)
◎豆瓣评分 /10 from 0 users
◎豆瓣链接 https://douban.com/subject/34890017/
◎集  数 6
◎导  演 詹姆斯·哈维斯 James Hawes
◎编  剧 威尔·史密斯 Will Smith  / 米克·埃隆 Mick Herron
◎主  演 加里·奥德曼 Gary Oldman
       克里斯汀·斯科特·托马斯 Kristin Scott Thomas
       杰克·劳登 Jack Lowden
       奥利维亚·库克 Olivia Cooke
       乔纳森·普雷斯 Jonathan Pryce
       斯蒂芬·沃尔特斯 Stephen Walters
       弗莱迪·福克斯 Freddie Fox
       罗莎琳德·以利亚撒 Rosalind Eleazar
       克里斯·雷利 Chris Reilly
       山姆·哈兹尔丁 Sam Hazeldine
       达斯汀·德姆瑞·伯恩斯 Dustin Demri-Burns
       安东尼奥·阿克儿 Antonio Aakeel
       巴利·吉尔 Bally Gill
       乔伊·安沙 Joey Ansah
       埃德蒙德·金斯利 Edmund Kingsley
       吉米·沃克 Jimmy Walker
       迈克尔·奥丁·卡特赖特 Michael Odin Cartwright
       肖恩·吉尔德 Sean Gilder
       汤姆莫海伦 Tom Mulheron
       劳伦·蕾克 Laura Lake
       雷·伯内特 Ray Burnet


◎简  介


  该剧根据Mick Herron的同名系列小说改编,故事围绕着军情五处内一个不正常的特务组,以及他们讨人厌的老板:臭名满天下的杰克逊·兰姆。他们在真假难辨的间谍世界中努力着,以保卫英国免受邪恶势力的侵害。

Video
ID : 1
Format : HEVC
Format/Info : High Efficiency Video Coding
Format profile : Main 10@L5@High
HDR format : Dolby Vision, Version 1.0, dvhe.05.06, BL+RPU
Codec ID : V_MPEGH/ISO/HEVC
Duration : 53 min 51 s
Bit rate : 24.4 Mb/s
Width : 3 840 pixels
Height : 1 920 pixels
Display aspect ratio : 2.000
Frame rate mode : Constant
Frame rate : 23.976 (24000/1001) FPS
Color space : YUV
Chroma subsampling : 4:2:0
Bit depth : 10 bits
Bits/(Pixel*Frame) : 0.138
Stream size : 9.17 GiB (97%)
Default : Yes
Forced : No

Audio
ID : 2
Format : E-AC-3 JOC
Format/Info : Enhanced AC-3 with Joint Object Coding
Commercial name : Dolby Digital Plus with Dolby Atmos
Codec ID : A_EAC3
Duration : 53 min 51 s
Bit rate mode : Constant
Bit rate : 768 kb/s
Channel(s) : 6 channels
Channel layout : L R C LFE Ls Rs
Sampling rate : 48.0 kHz
Frame rate : 31.250 FPS (1536 SPF)
Compression mode : Lossy
Stream size : 296 MiB (3%)
Language : English
Service kind : Complete Main
Default : Yes
Forced : No
Complexity index : 16
Number of dynamic objects : 15
Bed channel count : 1 channel
Bed channel configuration : LFE

Text #1
ID : 3
Format : UTF-8
Codec ID : S_TEXT/UTF8
Codec ID/Info : UTF-8 Plain Text
Duration : 52 min 32 s
Bit rate : 73 b/s
Count of elements : 749
Stream size : 28.4 KiB (0%)
Language : English
Default : No
Forced : No

Text #2
ID : 4
Format : UTF-8
Codec ID : S_TEXT/UTF8
Codec ID/Info : UTF-8 Plain Text
Duration : 52 min 40 s
Bit rate : 81 b/s
Count of elements : 808
Stream size : 31.4 KiB (0%)
Title : SDH
Language : English
Default : No
Forced : No

Text #3
ID : 5
Format : UTF-8
Codec ID : S_TEXT/UTF8
Codec ID/Info : UTF-8 Plain Text
Duration : 53 min 37 s
Bit rate : 102 b/s
Count of elements : 775
Stream size : 40.2 KiB (0%)
Language : Arabic
Default : No
Forced : No

Text #4
ID : 6
Format : UTF-8
Codec ID : S_TEXT/UTF8
Codec ID/Info : UTF-8 Plain Text
Duration : 53 min 37 s
Bit rate : 98 b/s
Count of elements : 694
Stream size : 38.7 KiB (0%)
Language : Bulgarian
Default : No
Forced : No

Text #5
ID : 7
Format : UTF-8
Codec ID : S_TEXT/UTF8
Codec ID/Info : UTF-8 Plain Text
Duration : 53 min 37 s
Bit rate : 64 b/s
Count of elements : 773
Stream size : 25.4 KiB (0%)
Title : 普通话(简体)
Language : 中文
Default : No
Forced : No

Text #6
ID : 8
Format : UTF-8
Codec ID : S_TEXT/UTF8
Codec ID/Info : UTF-8 Plain Text
Duration : 53 min 37 s
Bit rate : 64 b/s
Count of elements : 773
Stream size : 25.2 KiB (0%)
Title : 普通话(繁体)
Language : 中文
Default : No
Forced : No

Text #7
ID : 9
Format : UTF-8
Codec ID : S_TEXT/UTF8
Codec ID/Info : UTF-8 Plain Text
Duration : 53 min 37 s
Bit rate : 63 b/s
Count of elements : 717
Stream size : 24.8 KiB (0%)
Language : Czech
Default : No
Forced : No

Text #8
ID : 10
Format : UTF-8
Codec ID : S_TEXT/UTF8
Codec ID/Info : UTF-8 Plain Text
Duration : 53 min 37 s
Bit rate : 64 b/s
Count of elements : 614
Stream size : 25.4 KiB (0%)
Language : Danish
Default : No
Forced : No

Text #9
ID : 11
Format : UTF-8
Codec ID : S_TEXT/UTF8
Codec ID/Info : UTF-8 Plain Text
Duration : 53 min 27 s
Bit rate : 61 b/s
Count of elements : 660
Stream size : 24.2 KiB (0%)
Language : German
Default : No
Forced : No

Text #10
ID : 12
Format : UTF-8
Codec ID : S_TEXT/UTF8
Codec ID/Info : UTF-8 Plain Text
Duration : 53 min 37 s
Bit rate : 118 b/s
Count of elements : 648
Stream size : 46.7 KiB (0%)
Language : Greek
Default : No
Forced : No

Text #11
ID : 13
Format : UTF-8
Codec ID : S_TEXT/UTF8
Codec ID/Info : UTF-8 Plain Text
Duration : 53 min 41 s
Bit rate : 74 b/s
Count of elements : 772
Stream size : 29.3 KiB (0%)
Title : Latin America
Language : Spanish
Default : No
Forced : No

Text #12
ID : 14
Format : UTF-8
Codec ID : S_TEXT/UTF8
Codec ID/Info : UTF-8 Plain Text
Duration : 53 min 37 s
Bit rate : 73 b/s
Count of elements : 774
Stream size : 29.0 KiB (0%)
Title : Spain
Language : Spanish
Default : No
Forced : No

Text #13
ID : 15
Format : UTF-8
Codec ID : S_TEXT/UTF8
Codec ID/Info : UTF-8 Plain Text
Duration : 53 min 37 s
Bit rate : 63 b/s
Count of elements : 726
Stream size : 25.1 KiB (0%)
Language : Estonian
Default : No
Forced : No

Text #14
ID : 16
Format : UTF-8
Codec ID : S_TEXT/UTF8
Codec ID/Info : UTF-8 Plain Text
Duration : 53 min 37 s
Bit rate : 67 b/s
Count of elements : 761
Stream size : 26.5 KiB (0%)
Language : Finnish
Default : No
Forced : No

Text #15
ID : 17
Format : UTF-8
Codec ID : S_TEXT/UTF8
Codec ID/Info : UTF-8 Plain Text
Duration : 53 min 37 s
Bit rate : 58 b/s
Count of elements : 751
Stream size : 23.1 KiB (0%)
Title : Canada
Language : French
Default : No
Forced : No

Text #16
ID : 18
Format : UTF-8
Codec ID : S_TEXT/UTF8
Codec ID/Info : UTF-8 Plain Text
Duration : 53 min 37 s
Bit rate : 58 b/s
Count of elements : 750
Stream size : 23.1 KiB (0%)
Title : France
Language : French
Default : No
Forced : No

Text #17
ID : 19
Format : UTF-8
Codec ID : S_TEXT/UTF8
Codec ID/Info : UTF-8 Plain Text
Duration : 53 min 37 s
Bit rate : 95 b/s
Count of elements : 774
Stream size : 37.4 KiB (0%)
Language : Hebrew
Default : No
Forced : No

Text #18
ID : 20
Format : UTF-8
Codec ID : S_TEXT/UTF8
Codec ID/Info : UTF-8 Plain Text
Duration : 53 min 37 s
Bit rate : 193 b/s
Count of elements : 776
Stream size : 75.9 KiB (0%)
Language : Hindi
Default : No
Forced : No

Text #19
ID : 21
Format : UTF-8
Codec ID : S_TEXT/UTF8
Codec ID/Info : UTF-8 Plain Text
Duration : 53 min 37 s
Bit rate : 67 b/s
Count of elements : 763
Stream size : 26.3 KiB (0%)
Language : Hungarian
Default : No
Forced : No

Text #20
ID : 22
Format : UTF-8
Codec ID : S_TEXT/UTF8
Codec ID/Info : UTF-8 Plain Text
Duration : 53 min 37 s
Bit rate : 72 b/s
Count of elements : 768
Stream size : 28.4 KiB (0%)
Language : Indonesian
Default : No
Forced : No

Text #21
ID : 23
Format : UTF-8
Codec ID : S_TEXT/UTF8
Codec ID/Info : UTF-8 Plain Text
Duration : 53 min 38 s
Bit rate : 71 b/s
Count of elements : 766
Stream size : 28.0 KiB (0%)
Language : Italian
Default : No
Forced : No

Text #22
ID : 24
Format : UTF-8
Codec ID : S_TEXT/UTF8
Codec ID/Info : UTF-8 Plain Text
Duration : 53 min 32 s
Bit rate : 54 b/s
Count of elements : 781
Stream size : 21.3 KiB (0%)
Language : Japanese
Default : No
Forced : No

Text #23
ID : 25
Format : UTF-8
Codec ID : S_TEXT/UTF8
Codec ID/Info : UTF-8 Plain Text
Duration : 53 min 37 s
Bit rate : 70 b/s
Count of elements : 775
Stream size : 27.6 KiB (0%)
Language : Korean
Default : No
Forced : No

Text #24
ID : 26
Format : UTF-8
Codec ID : S_TEXT/UTF8
Codec ID/Info : UTF-8 Plain Text
Duration : 53 min 37 s
Bit rate : 71 b/s
Count of elements : 771
Stream size : 28.2 KiB (0%)
Language : Lithuanian
Default : No
Forced : No

Text #25
ID : 27
Format : UTF-8
Codec ID : S_TEXT/UTF8
Codec ID/Info : UTF-8 Plain Text
Duration : 53 min 37 s
Bit rate : 74 b/s
Count of elements : 769
Stream size : 29.1 KiB (0%)
Language : Latvian
Default : No
Forced : No

Text #26
ID : 28
Format : UTF-8
Codec ID : S_TEXT/UTF8
Codec ID/Info : UTF-8 Plain Text
Duration : 53 min 37 s
Bit rate : 71 b/s
Count of elements : 769
Stream size : 28.2 KiB (0%)
Language : Malay
Default : No
Forced : No

Text #27
ID : 29
Format : UTF-8
Codec ID : S_TEXT/UTF8
Codec ID/Info : UTF-8 Plain Text
Duration : 53 min 37 s
Bit rate : 55 b/s
Count of elements : 597
Stream size : 21.9 KiB (0%)
Language : Dutch
Default : No
Forced : No

Text #28
ID : 30
Format : UTF-8
Codec ID : S_TEXT/UTF8
Codec ID/Info : UTF-8 Plain Text
Duration : 53 min 37 s
Bit rate : 63 b/s
Count of elements : 677
Stream size : 25.1 KiB (0%)
Language : Norwegian
Default : No
Forced : No

Text #29
ID : 31
Format : UTF-8
Codec ID : S_TEXT/UTF8
Codec ID/Info : UTF-8 Plain Text
Duration : 53 min 37 s
Bit rate : 64 b/s
Count of elements : 765
Stream size : 25.2 KiB (0%)
Language : Polish
Default : No
Forced : No

Text #30
ID : 32
Format : UTF-8
Codec ID : S_TEXT/UTF8
Codec ID/Info : UTF-8 Plain Text
Duration : 53 min 37 s
Bit rate : 70 b/s
Count of elements : 767
Stream size : 27.7 KiB (0%)
Title : Portuguese
Language : Portuguese
Default : No
Forced : No

Text #31
ID : 33
Format : UTF-8
Codec ID : S_TEXT/UTF8
Codec ID/Info : UTF-8 Plain Text
Duration : 53 min 37 s
Bit rate : 60 b/s
Count of elements : 764
Stream size : 23.8 KiB (0%)
Title : Brazil
Language : Portuguese
Default : No
Forced : No

Text #32
ID : 34
Format : UTF-8
Codec ID : S_TEXT/UTF8
Codec ID/Info : UTF-8 Plain Text
Duration : 53 min 41 s
Bit rate : 109 b/s
Count of elements : 774
Stream size : 43.1 KiB (0%)
Language : Russian
Default : No
Forced : No

Text #33
ID : 35
Format : UTF-8
Codec ID : S_TEXT/UTF8
Codec ID/Info : UTF-8 Plain Text
Duration : 53 min 37 s
Bit rate : 66 b/s
Count of elements : 758
Stream size : 26.3 KiB (0%)
Language : Slovak
Default : No
Forced : No

Text #34
ID : 36
Format : UTF-8
Codec ID : S_TEXT/UTF8
Codec ID/Info : UTF-8 Plain Text
Duration : 53 min 37 s
Bit rate : 57 b/s
Count of elements : 713
Stream size : 22.7 KiB (0%)
Language : Slovenian
Default : No
Forced : No

Text #35
ID : 37
Format : UTF-8
Codec ID : S_TEXT/UTF8
Codec ID/Info : UTF-8 Plain Text
Duration : 53 min 37 s
Bit rate : 71 b/s
Count of elements : 701
Stream size : 28.2 KiB (0%)
Language : Swedish
Default : No
Forced : No

Text #36
ID : 38
Format : UTF-8
Codec ID : S_TEXT/UTF8
Codec ID/Info : UTF-8 Plain Text
Duration : 53 min 37 s
Bit rate : 216 b/s
Count of elements : 774
Stream size : 85.0 KiB (0%)
Language : Tamil
Default : No
Forced : No

Text #37
ID : 39
Format : UTF-8
Codec ID : S_TEXT/UTF8
Codec ID/Info : UTF-8 Plain Text
Duration : 53 min 37 s
Bit rate : 219 b/s
Count of elements : 775
Stream size : 86.2 KiB (0%)
Language : Telugu
Default : No
Forced : No

Text #38
ID : 40
Format : UTF-8
Codec ID : S_TEXT/UTF8
Codec ID/Info : UTF-8 Plain Text
Duration : 53 min 37 s
Bit rate : 150 b/s
Count of elements : 774
Stream size : 59.2 KiB (0%)
Language : Thai
Default : No
Forced : No

Text #39
ID : 41
Format : UTF-8
Codec ID : S_TEXT/UTF8
Codec ID/Info : UTF-8 Plain Text
Duration : 53 min 37 s
Bit rate : 71 b/s
Count of elements : 755
Stream size : 28.0 KiB (0%)
Language : Turkish
Default : No
Forced : No

Text #40
ID : 42
Format : UTF-8
Codec ID : S_TEXT/UTF8
Codec ID/Info : UTF-8 Plain Text
Duration : 53 min 37 s
Bit rate : 101 b/s
Count of elements : 771
Stream size : 39.9 KiB (0%)
Language : Ukrainian
Default : No
Forced : No

Text #41
ID : 43
Format : UTF-8
Codec ID : S_TEXT/UTF8
Codec ID/Info : UTF-8 Plain Text
Duration : 53 min 37 s
Bit rate : 93 b/s
Count of elements : 768
Stream size : 36.6 KiB (0%)
Language : Vietnamese
Default : No
Forced : No

Text #42
ID : 44
Format : UTF-8
Codec ID : S_TEXT/UTF8
Codec ID/Info : UTF-8 Plain Text
Duration : 53 min 37 s
Bit rate : 62 b/s
Count of elements : 774
Stream size : 24.7 KiB (0%)
Title : 中文(粤语)
Language : 中文
Default : No
Forced : No


下载地址:

游客,如果您要查看本帖隐藏内容请回复

游客,如果您要查看本帖隐藏内容请回复

游客,如果您要查看本帖隐藏内容请回复

游客,如果您要查看本帖隐藏内容请回复






上一篇:弹子球游戏(内嵌简繁中字)(2022)/第一季全8集/4K高清版本下载
下一篇:创造或打破(内嵌简繁中字)(2022)/ 第一季全6集/4K高清版本下载
回复

使用道具 举报

50

主题

1533

帖子

4435

积分

4K家园VIP

Rank: 9Rank: 9Rank: 9

积分
4435
发表于 2022-4-29 21:47:11 | 显示全部楼层
无论是不是沙发都得回复下
回复 支持 反对

使用道具 举报

0

主题

8230

帖子

1万

积分

4K家园VIP

Rank: 9Rank: 9Rank: 9

积分
18830
发表于 2022-4-29 21:58:49 | 显示全部楼层
太好啦&萬分感謝版主的無私發佈分享%
回复 支持 反对

使用道具 举报

3

主题

1393

帖子

4021

积分

4K家园VIP

Rank: 9Rank: 9Rank: 9

积分
4021
发表于 2022-4-30 19:59:23 | 显示全部楼层
纯粹路过,没任何兴趣,仅仅是看在老用户份上回复一下
回复 支持 反对

使用道具 举报

1

主题

1380

帖子

3940

积分

中级会员

Rank: 4

积分
3940
发表于 2022-4-30 21:11:29 来自手机 | 显示全部楼层
路过
回复 支持 反对

使用道具 举报

0

主题

1356

帖子

4082

积分

4K家园VIP

Rank: 9Rank: 9Rank: 9

积分
4082
发表于 2022-4-30 23:03:59 | 显示全部楼层
什么东西啊
回复 支持 反对

使用道具 举报

1

主题

1387

帖子

3991

积分

4K家园VIP

Rank: 9Rank: 9Rank: 9

积分
3991
发表于 2022-4-30 23:50:57 | 显示全部楼层
差评
回复 支持 反对

使用道具 举报

0

主题

1

帖子

6

积分

新手上路

Rank: 1

积分
6
发表于 2022-5-1 08:35:00 | 显示全部楼层
好看,真的挺棒的
回复 支持 反对

使用道具 举报

您需要登录后才可以回帖 登录 | 立即注册

本版积分规则

精彩图文
Archiver|手机版|TAG|Sitemap|新帖|专题|联系我们:邮箱: 4kjia.com@gmail.com   

4k家园   ©2019