[4K韩国女团] 2022 全素妍- Beam Beam[收藏Master 2160][2160P/MP4/1.50GB]

[复制链接]

2770

主题

3128

帖子

2万

积分

超级版主

Rank: 8Rank: 8

积分
26227
 楼主| 发表于 2022-4-30 20:08:43 | 显示全部楼层 |阅读模式
本帖最后由 叽里呱啦 于 2022-4-30 21:11 编辑

Jeon Soyeon - Beam Beam [Master 2160].mp4_20220428_101545.799.jpg Jeon Soyeon - Beam Beam [Master 2160].mp4_20220428_101609.800.jpg Jeon Soyeon - Beam Beam [Master 2160].mp4_20220428_101616.311.jpg Jeon Soyeon - Beam Beam [Master 2160].mp4_20220428_101624.559.jpg Jeon Soyeon - Beam Beam [Master 2160].mp4_20220428_101637.400.jpg Jeon Soyeon - Beam Beam [Master 2160].mp4_20220428_101647.592.jpg
General
Complete name                  : F:\BT MV制作\2022 全素妍- Beam Beam [Master 2160][www.4kjia.com].alang
Format                         : MPEG-4
Format profile                 : Base Media / Version 2
Codec ID                       : mp42 (mp42/mp41)
File size                      : 1.51 GiB
Duration                       : 2 min 52 s
Overall bit rate mode          : Variable
Overall bit rate               : 75.3 Mb/s
Encoded date                   : UTC 2021-07-04 12:21:16
Tagged date                    : UTC 2021-07-04 12:27:16
TIM                            : 00:00:03:00
TSC                            : 24000
TSZ                            : 1001

Video
ID                             : 1
Format                         : AVC
Format/Info                    : Advanced Video Codec
Format profile                 : Main@L5.1
Format settings                : CABAC / 4 Ref Frames
Format settings, CABAC         : Yes
Format settings, Reference fra : 4 frames
Codec ID                       : avc1
Codec ID/Info                  : Advanced Video Coding
Duration                       : 2 min 52 s
Bit rate mode                  : Constant
Bit rate                       : 75.0 Mb/s
Width                          : 3 840 pixels
Height                         : 2 160 pixels
Display aspect ratio           : 16:9
Frame rate mode                : Constant
Frame rate                     : 23.976 (24000/1001) FPS
Color space                    : YUV
Chroma subsampling             : 4:2:0
Bit depth                      : 8 bits
Scan type                      : Progressive
Bits/(Pixel*Frame)             : 0.377
Stream size                    : 1.50 GiB (100%)
Language                       : English
Encoded date                   : UTC 2021-07-04 12:21:21
Tagged date                    : UTC 2021-07-04 12:21:21
Color range                    : Limited
Color primaries                : BT.709
Transfer characteristics       : BT.709
Matrix coefficients            : BT.709
Codec configuration box        : avcC

Audio
ID                             : 2
Format                         : AAC LC
Format/Info                    : Advanced Audio Codec Low Complexity
Codec ID                       : mp4a-40-2
Duration                       : 2 min 52 s
Source duration                : 2 min 52 s
Bit rate mode                  : Variable
Bit rate                       : 317 kb/s
Maximum bit rate               : 466 kb/s
Channel(s)                     : 2 channels
Channel layout                 : L R
Sampling rate                  : 48.0 kHz
Frame rate                     : 46.875 FPS (1024 SPF)
Compression mode               : Lossy
Stream size                    : 6.52 MiB (0%)
Source stream size             : 6.52 MiB (0%)
Language                       : English
Encoded date                   : UTC 2021-07-04 12:21:17
Tagged date                    : UTC 2021-07-04 12:21:17

下载地址:
****此区域为收费内容****    需支付 21 金币后可查看立即购买

****此区域为收费内容****    需支付 25 金币后可查看立即购买

PS:小水管制作不易,下载后请自觉做种,谢谢!
提供2010-2022年本人多年来珍藏优质[4K、8K、16K(25-120fps)] 高品质韩国(女团)MV、各种演示片、测试片等4K韩国MV“珍藏版”视频硬盘有偿拷贝或网盘分享,最新4K视频每天更新中,需要的联系本楼主!


.

上一篇:[4K女团] 2022 YENA - Smiley (Performance Video) [2160P/MP4/383MB]
下一篇:2022 泰延 - INVU [4K原始版本.alang][2160P/MP4/639MB]
回复

使用道具 举报

1

主题

1354

帖子

4090

积分

4K家园VIP

Rank: 9Rank: 9Rank: 9

积分
4090
发表于 2022-4-30 20:08:47 来自手机 | 显示全部楼层
锄禾日当午,发帖真辛苦。谁知坛中餐,帖帖皆辛苦!
回复 支持 反对

使用道具 举报

1

主题

1149

帖子

3467

积分

4K家园VIP

Rank: 9Rank: 9Rank: 9

积分
3467
发表于 2022-4-30 22:24:04 | 显示全部楼层
路过
回复 支持 反对

使用道具 举报

55

主题

1606

帖子

4634

积分

4K家园VIP

Rank: 9Rank: 9Rank: 9

积分
4634
发表于 2022-5-1 03:58:00 | 显示全部楼层
支持支持再支持
回复 支持 反对

使用道具 举报

52

主题

1495

帖子

4353

积分

4K家园VIP

Rank: 9Rank: 9Rank: 9

积分
4353
发表于 2022-5-1 09:45:11 | 显示全部楼层
4K电影下个试试
回复 支持 反对

使用道具 举报

2

主题

1367

帖子

3921

积分

4K家园VIP

Rank: 9Rank: 9Rank: 9

积分
3921
发表于 2022-5-1 17:41:09 | 显示全部楼层
支持,赞一个
回复 支持 反对

使用道具 举报

0

主题

714

帖子

2510

积分

注册会员

Rank: 2

积分
2510
发表于 3 天前 | 显示全部楼层
感谢楼主分享
回复 支持 反对

使用道具 举报

0

主题

45

帖子

191

积分

新手上路

Rank: 1

积分
191
发表于 昨天 04:00 | 显示全部楼层
感谢楼主分享
回复 支持 反对

使用道具 举报

您需要登录后才可以回帖 登录 | 立即注册

本版积分规则

精彩图文
Archiver|手机版|TAG|Sitemap|新帖|专题|联系我们:邮箱: 4kjia.com@gmail.com   

4k家园   ©2019