[4K电影] 马尔科姆与玛丽(内封简繁中字 (2021) 4K高清版本下载

[复制链接]

1735

主题

1868

帖子

1万

积分

超级版主

Rank: 8Rank: 8

积分
14105
 楼主| 发表于 2022-5-1 10:05:46 | 显示全部楼层 |阅读模式

QQ图片20220501100122_副本.png

◎译  名 马尔科姆与玛丽/电影试爱/马尔科姆和玛丽/首映夜
◎片  名 Malcolm & Marie
◎年  代 2021
◎产  地 美国
◎类  别 剧情/爱情
◎语  言 英语
◎上映日期 2021-01-29(美国点映)/2021-02-05(美国网络)
◎IMDb评分  6.6/10 from 35820 users
◎IMDb链接  https://www.imdb.com/title/tt12676326/
◎豆瓣评分 7.3/10 from 4534 users
◎豆瓣链接 https://douban.com/subject/35135958/
◎片  长 106分钟
◎导  演 萨姆·莱文森 Sam Levinson
◎编  剧 萨姆·莱文森 Sam Levinson
◎主  演 赞达亚 Zendaya
       约翰·大卫·华盛顿 John David Washington


◎简  介


  讲述一个电影人和女友参加了电影首映庆功会后回家,影片成功在望,名和利唾手可得。而这个美好的夜晚在关于两人关系的一些东西开始曝光后突然转变,考验他们之间爱的力量。

◎获奖情况

  第26届美国评论家选择电影奖  (2021)
  最佳女主角(提名) 赞达亚

Video
ID : 1
Format : HEVC
Format/Info : High Efficiency Video Coding
Format profile : Main 10@L5@Main
HDR format : Dolby Vision, Version 1.0, dvhe.05.06, BL+RPU
Codec ID : dvhe
Codec ID/Info : High Efficiency Video Coding with Dolby Vision
Duration : 1 h 46 min
Bit rate : 16.0 Mb/s
Width : 3 840 pixels
Height : 2 160 pixels
Display aspect ratio : 16:9
Frame rate mode : Constant
Frame rate : 24.000 FPS
Color space : YUV
Chroma subsampling : 4:2:0
Bit depth : 10 bits
Bits/(Pixel*Frame) : 0.080
Stream size : 11.9 GiB (95%)
Default : Yes
Alternate group : 1
Encoded date : UTC 2022-04-30 19:01:21
Tagged date : UTC 2022-04-30 19:04:41
Color range : Full
Codec configuration box : hvcC+dvcC

Audio
ID : 2
Format : E-AC-3 JOC
Format/Info : Enhanced AC-3 with Joint Object Coding
Commercial name : Dolby Digital Plus with Dolby Atmos
Codec ID : ec-3
Duration : 1 h 46 min
Bit rate mode : Constant
Bit rate : 768 kb/s
Maximum bit rate : 811 kb/s
Channel(s) : 6 channels
Channel layout : L R C LFE Ls Rs
Sampling rate : 48.0 kHz
Frame rate : 31.250 FPS (1536 SPF)
Compression mode : Lossy
Stream size : 585 MiB (5%)
Title : English
Language : English
Service kind : Complete Main
Default : Yes
Alternate group : 1
Tagged date : UTC 2022-04-30 19:04:41
Complexity index : Not present / 16
Number of dynamic objects : 15
Bed channel count : 1 channel
Bed channel configuration : LFE

Text #1
ID : 3
Format : Timed Text
Codec ID : tx3g
Duration : 1 h 45 min
Bit rate mode : Variable
Bit rate : 99 b/s
Stream size : 76.1 KiB (0%)
Title : English
Language : English
Forced : No
Encoded date : UTC 2022-04-30 19:04:31
Tagged date : UTC 2022-04-30 19:04:41

Text #2
ID : 4
Format : Timed Text
Codec ID : tx3g
Duration : 1 h 45 min
Bit rate mode : Variable
Bit rate : 126 b/s
Stream size : 97.8 KiB (0%)
Title : Arabic
Language : Arabic
Forced : No
Encoded date : UTC 2022-04-30 19:04:31
Tagged date : UTC 2022-04-30 19:04:41

Text #3
ID : 5
Format : Timed Text
Codec ID : tx3g
Duration : 1 h 45 min
Bit rate mode : Variable
Bit rate : 87 b/s
Stream size : 66.9 KiB (0%)
Title : 中文-简体
Language : 中文
Forced : No
Encoded date : UTC 2022-04-30 19:04:33
Tagged date : UTC 2022-04-30 19:04:41

Text #4
ID : 6
Format : Timed Text
Codec ID : tx3g
Duration : 1 h 45 min
Bit rate mode : Variable
Bit rate : 75 b/s
Stream size : 58.0 KiB (0%)
Title : 中文-繁体
Language : 中文
Forced : No
Encoded date : UTC 2022-04-30 19:04:33
Tagged date : UTC 2022-04-30 19:04:41


Text #5
ID : 7
Format : Timed Text
Codec ID : tx3g
Duration : 1 h 45 min
Bit rate mode : Variable
Bit rate : 68 b/s
Stream size : 52.6 KiB (0%)
Title : Croatian
Language : Croatian
Forced : No
Encoded date : UTC 2022-04-30 19:04:34
Tagged date : UTC 2022-04-30 19:04:41

Text #6
ID : 8
Format : Timed Text
Codec ID : tx3g
Duration : 1 h 45 min
Bit rate mode : Variable
Bit rate : 68 b/s
Stream size : 52.5 KiB (0%)
Title : Czech
Language : Czech
Forced : No
Encoded date : UTC 2022-04-30 19:04:36
Tagged date : UTC 2022-04-30 19:04:41

Text #7
ID : 9
Format : Timed Text
Codec ID : tx3g
Duration : 1 h 45 min
Bit rate mode : Variable
Bit rate : 68 b/s
Stream size : 52.9 KiB (0%)
Title : Danish
Language : Danish
Forced : No
Encoded date : UTC 2022-04-30 19:04:36
Tagged date : UTC 2022-04-30 19:04:41

Text #8
ID : 10
Format : Timed Text
Codec ID : tx3g
Duration : 1 h 45 min
Bit rate mode : Variable
Bit rate : 67 b/s
Stream size : 51.7 KiB (0%)
Title : Dutch
Language : Dutch
Forced : No
Encoded date : UTC 2022-04-30 19:04:37
Tagged date : UTC 2022-04-30 19:04:41

Text #9
ID : 11
Format : Timed Text
Codec ID : tx3g
Duration : 1 h 45 min
Bit rate mode : Variable
Bit rate : 71 b/s
Stream size : 54.9 KiB (0%)
Title : Finnish
Language : Finnish
Forced : No
Encoded date : UTC 2022-04-30 19:04:37
Tagged date : UTC 2022-04-30 19:04:41

Text #10
ID : 12
Format : Timed Text
Codec ID : tx3g
Duration : 1 h 45 min
Bit rate mode : Variable
Bit rate : 73 b/s
Stream size : 56.6 KiB (0%)
Title : French
Language : French
Forced : No
Encoded date : UTC 2022-04-30 19:04:37
Tagged date : UTC 2022-04-30 19:04:41

Text #11
ID : 13
Format : Timed Text
Codec ID : tx3g
Duration : 1 h 45 min
Bit rate mode : Variable
Bit rate : 71 b/s
Stream size : 55.1 KiB (0%)
Title : German
Language : German
Forced : No
Encoded date : UTC 2022-04-30 19:04:37
Tagged date : UTC 2022-04-30 19:04:41

Text #12
ID : 14
Format : Timed Text
Codec ID : tx3g
Duration : 1 h 45 min
Bit rate mode : Variable
Bit rate : 115 b/s
Stream size : 89.0 KiB (0%)
Title : Greek
Language : Greek
Forced : No
Encoded date : UTC 2022-04-30 19:04:37
Tagged date : UTC 2022-04-30 19:04:41

Text #13
ID : 15
Format : Timed Text
Codec ID : tx3g
Duration : 1 h 45 min
Bit rate mode : Variable
Bit rate : 109 b/s
Stream size : 84.3 KiB (0%)
Title : Hebrew
Language : Hebrew
Forced : No
Encoded date : UTC 2022-04-30 19:04:37
Tagged date : UTC 2022-04-30 19:04:41

Text #14
ID : 16
Format : Timed Text
Codec ID : tx3g
Duration : 1 h 45 min
Bit rate mode : Variable
Bit rate : 73 b/s
Stream size : 56.4 KiB (0%)
Title : Hungarian
Language : Hungarian
Forced : No
Encoded date : UTC 2022-04-30 19:04:37
Tagged date : UTC 2022-04-30 19:04:41

Text #15
ID : 17
Format : Timed Text
Codec ID : tx3g
Duration : 1 h 45 min
Bit rate mode : Variable
Bit rate : 70 b/s
Stream size : 54.3 KiB (0%)
Title : Indonesian
Language : Indonesian
Forced : No
Encoded date : UTC 2022-04-30 19:04:37
Tagged date : UTC 2022-04-30 19:04:41

Text #16
ID : 18
Format : Timed Text
Codec ID : tx3g
Duration : 1 h 45 min
Bit rate mode : Variable
Bit rate : 70 b/s
Stream size : 54.1 KiB (0%)
Title : Italian
Language : Italian
Forced : No
Encoded date : UTC 2022-04-30 19:04:38
Tagged date : UTC 2022-04-30 19:04:41

Text #17
ID : 19
Format : Timed Text
Codec ID : tx3g
Duration : 1 h 45 min
Bit rate mode : Variable
Bit rate : 66 b/s
Stream size : 51.1 KiB (0%)
Title : Japanese
Language : Japanese
Forced : No
Encoded date : UTC 2022-04-30 19:04:38
Tagged date : UTC 2022-04-30 19:04:41

Text #18
ID : 20
Format : Timed Text
Codec ID : tx3g
Duration : 1 h 45 min
Bit rate mode : Variable
Bit rate : 82 b/s
Stream size : 63.7 KiB (0%)
Title : Korean
Language : Korean
Forced : No
Encoded date : UTC 2022-04-30 19:04:38
Tagged date : UTC 2022-04-30 19:04:41

Text #19
ID : 21
Format : Timed Text
Codec ID : tx3g
Duration : 1 h 45 min
Bit rate mode : Variable
Bit rate : 68 b/s
Stream size : 53.0 KiB (0%)
Title : Malay
Language : Malay
Forced : No
Encoded date : UTC 2022-04-30 19:04:38
Tagged date : UTC 2022-04-30 19:04:41

Text #20
ID : 22
Format : Timed Text
Codec ID : tx3g
Duration : 1 h 45 min
Bit rate mode : Variable
Bit rate : 71 b/s
Stream size : 55.0 KiB (0%)
Title : Norwegian
Language : Norwegian Bokmal
Forced : No
Encoded date : UTC 2022-04-30 19:04:38
Tagged date : UTC 2022-04-30 19:04:41

Text #21
ID : 23
Format : Timed Text
Codec ID : tx3g
Duration : 1 h 45 min
Bit rate mode : Variable
Bit rate : 71 b/s
Stream size : 54.8 KiB (0%)
Title : Polish
Language : Polish
Forced : No
Encoded date : UTC 2022-04-30 19:04:39
Tagged date : UTC 2022-04-30 19:04:41

Text #22
ID : 24
Format : Timed Text
Codec ID : tx3g
Duration : 1 h 45 min
Bit rate mode : Variable
Bit rate : 67 b/s
Stream size : 52.1 KiB (0%)
Title : Portuguese
Language : Portuguese
Forced : No
Encoded date : UTC 2022-04-30 19:04:39
Tagged date : UTC 2022-04-30 19:04:41

Text #23
ID : 25
Format : Timed Text
Codec ID : tx3g
Duration : 1 h 45 min
Bit rate mode : Variable
Bit rate : 72 b/s
Stream size : 56.1 KiB (0%)
Title : Portuguese
Language : Portuguese
Forced : No
Encoded date : UTC 2022-04-30 19:04:39
Tagged date : UTC 2022-04-30 19:04:41

Text #24
ID : 26
Format : Timed Text
Codec ID : tx3g
Duration : 1 h 45 min
Bit rate mode : Variable
Bit rate : 79 b/s
Stream size : 60.9 KiB (0%)
Title : Romanian
Language : Romanian
Forced : No
Encoded date : UTC 2022-04-30 19:04:39
Tagged date : UTC 2022-04-30 19:04:41

Text #25
ID : 27
Format : Timed Text
Codec ID : tx3g
Duration : 1 h 45 min
Bit rate mode : Variable
Bit rate : 119 b/s
Stream size : 92.1 KiB (0%)
Title : Russian
Language : Russian
Forced : No
Encoded date : UTC 2022-04-30 19:04:39
Tagged date : UTC 2022-04-30 19:04:41

Text #26
ID : 28
Format : Timed Text
Codec ID : tx3g
Duration : 1 h 45 min
Bit rate mode : Variable
Bit rate : 72 b/s
Stream size : 55.7 KiB (0%)
Title : Spanish-EU
Language : Spanish
Forced : No
Encoded date : UTC 2022-04-30 19:04:39
Tagged date : UTC 2022-04-30 19:04:41

Text #27
ID : 29
Format : Timed Text
Codec ID : tx3g
Duration : 1 h 45 min
Bit rate mode : Variable
Bit rate : 69 b/s
Stream size : 53.5 KiB (0%)
Title : Spanish-EU
Language : Spanish
Forced : No
Encoded date : UTC 2022-04-30 19:04:39
Tagged date : UTC 2022-04-30 19:04:41

Text #28
ID : 30
Format : Timed Text
Codec ID : tx3g
Duration : 1 h 45 min
Bit rate mode : Variable
Bit rate : 73 b/s
Stream size : 56.5 KiB (0%)
Title : Swedish
Language : Swedish
Forced : No
Encoded date : UTC 2022-04-30 19:04:40
Tagged date : UTC 2022-04-30 19:04:41

Text #29
ID : 31
Format : Timed Text
Codec ID : tx3g
Duration : 1 h 45 min
Bit rate mode : Variable
Bit rate : 187 b/s
Stream size : 145 KiB (0%)
Title : Thai
Language : Thai
Forced : No
Encoded date : UTC 2022-04-30 19:04:40
Tagged date : UTC 2022-04-30 19:04:41

Text #30
ID : 32
Format : Timed Text
Codec ID : tx3g
Duration : 1 h 45 min
Bit rate mode : Variable
Bit rate : 71 b/s
Stream size : 54.9 KiB (0%)
Title : Turkish
Language : Turkish
Forced : No
Encoded date : UTC 2022-04-30 19:04:40
Tagged date : UTC 2022-04-30 19:04:41

Text #31
ID : 33
Format : Timed Text
Codec ID : tx3g
Duration : 1 h 45 min
Bit rate mode : Variable
Bit rate : 118 b/s
Stream size : 91.7 KiB (0%)
Title : Ukrainian
Language : Ukrainian
Forced : No
Encoded date : UTC 2022-04-30 19:04:40
Tagged date : UTC 2022-04-30 19:04:41

Text #32
ID : 34
Format : Timed Text
Codec ID : tx3g
Duration : 1 h 45 min
Bit rate mode : Variable
Bit rate : 98 b/s
Stream size : 75.9 KiB (0%)
Title : Vietnamese
Language : Vietnamese
Forced : No
Encoded date : UTC 2022-04-30 19:04:41
Tagged date : UTC 2022-04-30 19:04:41
资源速度为零或资源敏感被和谐时,推荐使用qBittorrent等下载软件,有条件的推荐115更好的下载软件!

下载地址


游客,如果您要查看本帖隐藏内容请回复

游客,如果您要查看本帖隐藏内容请回复

游客,如果您要查看本帖隐藏内容请回复

游客,如果您要查看本帖隐藏内容请回复






上一篇:我的章鱼老师(内封简繁中字 (2018) 4K高清版本下载
下一篇:比佛利山超级警探2 / Beverly.Hills.Cop.II (1987) 4K高清版本下载
回复

使用道具 举报

0

主题

1163

帖子

3503

积分

4K家园VIP

Rank: 9Rank: 9Rank: 9

积分
3503
发表于 2022-5-1 10:05:50 | 显示全部楼层
围观 围观 沙发在哪里!!!
回复 支持 反对

使用道具 举报

1

主题

1161

帖子

3503

积分

4K家园VIP

Rank: 9Rank: 9Rank: 9

积分
3503
发表于 2022-5-1 10:05:50 | 显示全部楼层
4K版的应该更清晰吧
回复 支持 反对

使用道具 举报

0

主题

105

帖子

5771

积分

高级会员

Rank: 3Rank: 3

积分
5771
发表于 2022-5-1 12:02:03 | 显示全部楼层
感谢楼主分享资源
回复 支持 反对

使用道具 举报

0

主题

8230

帖子

1万

积分

4K家园VIP

Rank: 9Rank: 9Rank: 9

积分
18830
发表于 2022-5-1 12:55:22 | 显示全部楼层
太好啦&萬分感謝版主的無私發佈分享%
回复 支持 反对

使用道具 举报

0

主题

1

帖子

6

积分

新手上路

Rank: 1

积分
6
发表于 2022-5-1 19:58:52 | 显示全部楼层

big ass nude

big ass nude
回复 支持 反对

使用道具 举报

0

主题

15

帖子

61

积分

新手上路

Rank: 1

积分
61
发表于 2022-5-2 08:03:29 | 显示全部楼层
第26届美国评论家选择电影奖 ,值得一看
回复 支持 反对

使用道具 举报

1

主题

1389

帖子

3977

积分

4K家园VIP

Rank: 9Rank: 9Rank: 9

积分
3977
发表于 2022-5-2 08:58:46 | 显示全部楼层
支持一下楼主,顶起来
回复 支持 反对

使用道具 举报

0

主题

1

帖子

6

积分

新手上路

Rank: 1

积分
6
发表于 2022-5-3 08:20:36 | 显示全部楼层

my cams

my cams
回复

使用道具 举报

1

主题

1344

帖子

4050

积分

4K家园VIP

Rank: 9Rank: 9Rank: 9

积分
4050
发表于 2022-5-4 20:25:56 | 显示全部楼层
我了个去,顶了
回复 支持 反对

使用道具 举报

您需要登录后才可以回帖 登录 | 立即注册

本版积分规则

精彩图文
Archiver|手机版|TAG|Sitemap|新帖|专题|联系我们:邮箱: 4kjia.com@gmail.com   

4k家园   ©2019