鬼庄园 (内嵌简繁中字) (2022)/ 第一季全9集/4K高清版本下载

[复制链接]

130

主题

149

帖子

1459

积分

版主

Rank: 7Rank: 7Rank: 7

积分
1459
 楼主| 发表于 2022-5-1 15:26:48 | 显示全部楼层 |阅读模式
p2618948447_副本.jpg

◎译  名 鬼庄园/布莱庄园异事/阴宅怪事(港)/鬼入侵 第二季/The Haunting of Hill House
◎片  名 The Haunting of Bly Manor
◎年  代 2020
◎产  地 美国
◎类    别 悬疑/恐怖
◎语  言 英语
◎上映日期 2020-10-09(美国)
◎IMDb评分  7.3/10 from 95899 users
◎IMDb链接  https://www.imdb.com/title/tt10970552/
◎豆瓣评分 7.6/10 from 12048 users
◎豆瓣链接 https://douban.com/subject/30442447/
◎集  数 9
◎片  长 60分钟
◎导  演 迈克·弗拉纳根 Mike Flanagan
◎编  剧 迈克·弗拉纳根 Mike Flanagan / 亨利·詹姆斯 Henry James
◎主  演 奥利弗·杰森-科恩 Oliver Jackson-Cohen
        维多利亚·佩德雷蒂 Victoria Pedretti
        凯特·西格尔 Kate Siegel
        亨利·托马斯 Henry Thomas
        拉胡尔·寇利 Rahul Kohli
        泰尼亚·米勒 T'Nia Miller
        凯瑟琳·帕克 Catherine Parker
        本杰明·埃文·安斯沃思 Benjamin Evan Ainsworth


◎简  介


  《鬼入侵》创剧人迈克·弗拉纳根和制片人特雷弗·梅西将携手推出《鬼入侵》系列下一个备受期待的章节《鬼庄园》。故事背景设定在 20 世纪 80 年代的英格兰,一名互惠生惨死后,亨利·温格雷夫(亨利·托马斯饰)雇佣了一位年轻的美国保姆(维多利亚·佩德雷蒂饰)来照顾他的孤儿侄女和侄子(阿梅莉·贝亚·史密斯、本杰明·埃文·安斯沃思饰),他们与庄园的厨师欧文(拉胡尔·寇利饰)、场地管理员杰米(阿梅莉亚·伊芙饰)和管家格罗斯夫人(泰尼亚·米勒饰)共同住在布莱庄园。然而,在这部令人不寒而栗的哥特式传奇中,庄园里的一切似乎另有隐情,数百年来关于爱和失去的黑暗秘密正在等待被发掘。在布莱庄园,死亡并不意味着销声匿迹。

  制作合作伙伴弗拉纳根和梅西借鉴了亨利·詹姆斯的经典超自然故事,以打造出由奥利弗·杰森-科恩、凯特·西格尔和塔希拉·沙里夫联合主演的群戏剧情片。该剧集的监制包括 Intrepid Pictures 的弗拉纳根和梅西,以及 Amblin Television 的达里尔·弗朗克和贾斯廷·法尔维。

Video
ID : 1
Format : HEVC
Format/Info : High Efficiency Video Coding
Format profile : Main 10@L5@Main
HDR format : Dolby Vision, Version 1.0, dvhe.05.06, BL+RPU
Codec ID : dvhe
Codec ID/Info : High Efficiency Video Coding with Dolby Vision
Duration : 1 h 6 min
Bit rate : 15.6 Mb/s
Width : 3 840 pixels
Height : 2 160 pixels
Display aspect ratio : 16:9
Frame rate mode : Constant
Frame rate : 24.000 FPS
Color space : YUV
Chroma subsampling : 4:2:0
Bit depth : 10 bits
Bits/(Pixel*Frame) : 0.078
Stream size : 7.23 GiB (95%)
Default : Yes
Alternate group : 1
Encoded date : UTC 2022-04-30 20:11:32
Tagged date : UTC 2022-04-30 20:12:49
Color range : Full
Codec configuration box : hvcC+dvcC

Audio
ID : 2
Format : E-AC-3 JOC
Format/Info : Enhanced AC-3 with Joint Object Coding
Commercial name : Dolby Digital Plus with Dolby Atmos
Codec ID : ec-3
Duration : 1 h 6 min
Bit rate mode : Constant
Bit rate : 768 kb/s
Maximum bit rate : 811 kb/s
Channel(s) : 6 channels
Channel layout : L R C LFE Ls Rs
Sampling rate : 48.0 kHz
Frame rate : 31.250 FPS (1536 SPF)
Compression mode : Lossy
Stream size : 364 MiB (5%)
Title : English
Language : English
Service kind : Complete Main
Default : Yes
Alternate group : 1
Tagged date : UTC 2022-04-30 20:12:49
Complexity index : Not present / 16
Number of dynamic objects : 15
Bed channel count : 1 channel
Bed channel configuration : LFE

Text #1
ID : 3
Format : Timed Text
Codec ID : tx3g
Duration : 1 h 3 min
Bit rate mode : Variable
Bit rate : 70 b/s
Stream size : 32.6 KiB (0%)
Title : English
Language : English
Forced : No
Encoded date : UTC 2022-04-30 20:12:41
Tagged date : UTC 2022-04-30 20:12:49

Text #2
ID : 4
Format : Timed Text
Codec ID : tx3g
Duration : 1 h 4 min
Bit rate mode : Variable
Bit rate : 91 b/s
Stream size : 43.2 KiB (0%)
Title : Arabic
Language : Arabic
Forced : No
Encoded date : UTC 2022-04-30 20:12:43
Tagged date : UTC 2022-04-30 20:12:49

Text #3
ID : 5
Format : Timed Text
Codec ID : tx3g
Duration : 1 h 4 min
Bit rate mode : Variable
Bit rate : 59 b/s
Stream size : 27.9 KiB (0%)
Title : 中文-简体
Language : Chinese
Forced : No
Encoded date : UTC 2022-04-30 20:12:43
Tagged date : UTC 2022-04-30 20:12:49

Text #4
ID : 6
Format : Timed Text
Codec ID : tx3g
Duration : 1 h 4 min
Bit rate mode : Variable
Bit rate : 59 b/s
Stream size : 28.1 KiB (0%)
Title : 中文-繁体
Language : Chinese
Forced : No
Encoded date : UTC 2022-04-30 20:12:43
Tagged date : UTC 2022-04-30 20:12:49


Text #5
ID : 7
Format : Timed Text
Codec ID : tx3g
Duration : 1 h 4 min
Bit rate mode : Variable
Bit rate : 50 b/s
Stream size : 23.7 KiB (0%)
Title : Croatian
Language : Croatian
Forced : No
Encoded date : UTC 2022-04-30 20:12:43
Tagged date : UTC 2022-04-30 20:12:49

Text #6
ID : 8
Format : Timed Text
Codec ID : tx3g
Duration : 1 h 4 min
Bit rate mode : Variable
Bit rate : 54 b/s
Stream size : 25.4 KiB (0%)
Title : Czech
Language : Czech
Forced : No
Encoded date : UTC 2022-04-30 20:12:43
Tagged date : UTC 2022-04-30 20:12:49

Text #7
ID : 9
Format : Timed Text
Codec ID : tx3g
Duration : 1 h 4 min
Bit rate mode : Variable
Bit rate : 54 b/s
Stream size : 25.6 KiB (0%)
Title : Danish
Language : Danish
Forced : No
Encoded date : UTC 2022-04-30 20:12:43
Tagged date : UTC 2022-04-30 20:12:49

Text #8
ID : 10
Format : Timed Text
Codec ID : tx3g
Duration : 1 h 4 min
Bit rate mode : Variable
Bit rate : 54 b/s
Stream size : 25.5 KiB (0%)
Title : Dutch
Language : Dutch
Forced : No
Encoded date : UTC 2022-04-30 20:12:43
Tagged date : UTC 2022-04-30 20:12:49

Text #9
ID : 11
Format : Timed Text
Codec ID : tx3g
Duration : 1 h 4 min
Bit rate mode : Variable
Bit rate : 51 b/s
Stream size : 24.1 KiB (0%)
Title : Finnish
Language : Finnish
Forced : No
Encoded date : UTC 2022-04-30 20:12:44
Tagged date : UTC 2022-04-30 20:12:49

Text #10
ID : 12
Format : Timed Text
Codec ID : tx3g
Duration : 1 h 4 min
Bit rate mode : Variable
Bit rate : 55 b/s
Stream size : 25.9 KiB (0%)
Title : French
Language : French
Forced : No
Encoded date : UTC 2022-04-30 20:12:45
Tagged date : UTC 2022-04-30 20:12:49

Text #11
ID : 13
Format : Timed Text
Codec ID : tx3g
Duration : 1 h 4 min
Bit rate mode : Variable
Bit rate : 55 b/s
Stream size : 26.2 KiB (0%)
Title : German
Language : German
Forced : No
Encoded date : UTC 2022-04-30 20:12:46
Tagged date : UTC 2022-04-30 20:12:49

Text #12
ID : 14
Format : Timed Text
Codec ID : tx3g
Duration : 1 h 4 min
Bit rate mode : Variable
Bit rate : 89 b/s
Stream size : 42.2 KiB (0%)
Title : Greek
Language : Greek
Forced : No
Encoded date : UTC 2022-04-30 20:12:46
Tagged date : UTC 2022-04-30 20:12:49

Text #13
ID : 15
Format : Timed Text
Codec ID : tx3g
Duration : 1 h 4 min
Bit rate mode : Variable
Bit rate : 87 b/s
Stream size : 41.1 KiB (0%)
Title : Hebrew
Language : Hebrew
Forced : No
Encoded date : UTC 2022-04-30 20:12:47
Tagged date : UTC 2022-04-30 20:12:49

Text #14
ID : 16
Format : Timed Text
Codec ID : tx3g
Duration : 1 h 4 min
Bit rate mode : Variable
Bit rate : 55 b/s
Stream size : 26.2 KiB (0%)
Title : Hungarian
Language : Hungarian
Forced : No
Encoded date : UTC 2022-04-30 20:12:47
Tagged date : UTC 2022-04-30 20:12:49

Text #15
ID : 17
Format : Timed Text
Codec ID : tx3g
Duration : 1 h 4 min
Bit rate mode : Variable
Bit rate : 54 b/s
Stream size : 25.7 KiB (0%)
Title : Indonesian
Language : Indonesian
Forced : No
Encoded date : UTC 2022-04-30 20:12:47
Tagged date : UTC 2022-04-30 20:12:49

Text #16
ID : 18
Format : Timed Text
Codec ID : tx3g
Duration : 1 h 4 min
Bit rate mode : Variable
Bit rate : 53 b/s
Stream size : 24.9 KiB (0%)
Title : Italian
Language : Italian
Forced : No
Encoded date : UTC 2022-04-30 20:12:47
Tagged date : UTC 2022-04-30 20:12:49

Text #17
ID : 19
Format : Timed Text
Codec ID : tx3g
Duration : 1 h 4 min
Bit rate mode : Variable
Bit rate : 62 b/s
Stream size : 29.4 KiB (0%)
Title : Japanese
Language : Japanese
Forced : No
Encoded date : UTC 2022-04-30 20:12:47
Tagged date : UTC 2022-04-30 20:12:49

Text #18
ID : 20
Format : Timed Text
Codec ID : tx3g
Duration : 1 h 4 min
Bit rate mode : Variable
Bit rate : 69 b/s
Stream size : 32.5 KiB (0%)
Title : Korean
Language : Korean
Forced : No
Encoded date : UTC 2022-04-30 20:12:48
Tagged date : UTC 2022-04-30 20:12:49

Text #19
ID : 21
Format : Timed Text
Codec ID : tx3g
Duration : 1 h 4 min
Bit rate mode : Variable
Bit rate : 59 b/s
Stream size : 28.0 KiB (0%)
Title : Malay
Language : Malay
Forced : No
Encoded date : UTC 2022-04-30 20:12:48
Tagged date : UTC 2022-04-30 20:12:49

Text #20
ID : 22
Format : Timed Text
Codec ID : tx3g
Duration : 1 h 4 min
Bit rate mode : Variable
Bit rate : 55 b/s
Stream size : 25.9 KiB (0%)
Title : Norwegian
Language : Norwegian Bokmal
Forced : No
Encoded date : UTC 2022-04-30 20:12:48
Tagged date : UTC 2022-04-30 20:12:49

Text #21
ID : 23
Format : Timed Text
Codec ID : tx3g
Duration : 1 h 4 min
Bit rate mode : Variable
Bit rate : 55 b/s
Stream size : 25.9 KiB (0%)
Title : Polish
Language : Polish
Forced : No
Encoded date : UTC 2022-04-30 20:12:48
Tagged date : UTC 2022-04-30 20:12:49

Text #22
ID : 24
Format : Timed Text
Codec ID : tx3g
Duration : 1 h 4 min
Bit rate mode : Variable
Bit rate : 56 b/s
Stream size : 26.2 KiB (0%)
Title : Portuguese
Language : Portuguese
Forced : No
Encoded date : UTC 2022-04-30 20:12:48
Tagged date : UTC 2022-04-30 20:12:49

Text #23
ID : 25
Format : Timed Text
Codec ID : tx3g
Duration : 1 h 4 min
Bit rate mode : Variable
Bit rate : 56 b/s
Stream size : 26.5 KiB (0%)
Title : Portuguese
Language : Portuguese
Forced : No
Encoded date : UTC 2022-04-30 20:12:48
Tagged date : UTC 2022-04-30 20:12:49

Text #24
ID : 26
Format : Timed Text
Codec ID : tx3g
Duration : 1 h 4 min
Bit rate mode : Variable
Bit rate : 59 b/s
Stream size : 27.8 KiB (0%)
Title : Romanian
Language : Romanian
Forced : No
Encoded date : UTC 2022-04-30 20:12:48
Tagged date : UTC 2022-04-30 20:12:49

Text #25
ID : 27
Format : Timed Text
Codec ID : tx3g
Duration : 1 h 4 min
Bit rate mode : Variable
Bit rate : 84 b/s
Stream size : 40.0 KiB (0%)
Title : Russian
Language : Russian
Forced : No
Encoded date : UTC 2022-04-30 20:12:48
Tagged date : UTC 2022-04-30 20:12:49

Text #26
ID : 28
Format : Timed Text
Codec ID : tx3g
Duration : 1 h 4 min
Bit rate mode : Variable
Bit rate : 54 b/s
Stream size : 25.7 KiB (0%)
Title : Spanish-EU
Language : Spanish
Forced : No
Encoded date : UTC 2022-04-30 20:12:48
Tagged date : UTC 2022-04-30 20:12:49

Text #27
ID : 29
Format : Timed Text
Codec ID : tx3g
Duration : 1 h 4 min
Bit rate mode : Variable
Bit rate : 52 b/s
Stream size : 24.5 KiB (0%)
Title : Spanish-EU
Language : Spanish
Forced : No
Encoded date : UTC 2022-04-30 20:12:49
Tagged date : UTC 2022-04-30 20:12:49

Text #28
ID : 30
Format : Timed Text
Codec ID : tx3g
Duration : 1 h 4 min
Bit rate mode : Variable
Bit rate : 54 b/s
Stream size : 25.6 KiB (0%)
Title : Swedish
Language : Swedish
Forced : No
Encoded date : UTC 2022-04-30 20:12:49
Tagged date : UTC 2022-04-30 20:12:49

Text #29
ID : 31
Format : Timed Text
Codec ID : tx3g
Duration : 1 h 4 min
Bit rate mode : Variable
Bit rate : 142 b/s
Stream size : 67.5 KiB (0%)
Title : Thai
Language : Thai
Forced : No
Encoded date : UTC 2022-04-30 20:12:49
Tagged date : UTC 2022-04-30 20:12:49

Text #30
ID : 32
Format : Timed Text
Codec ID : tx3g
Duration : 1 h 4 min
Bit rate mode : Variable
Bit rate : 54 b/s
Stream size : 25.7 KiB (0%)
Title : Turkish
Language : Turkish
Forced : No
Encoded date : UTC 2022-04-30 20:12:49
Tagged date : UTC 2022-04-30 20:12:49

Text #31
ID : 33
Format : Timed Text
Codec ID : tx3g
Duration : 1 h 4 min
Bit rate mode : Variable
Bit rate : 83 b/s
Stream size : 39.1 KiB (0%)
Title : Ukrainian
Language : Ukrainian
Forced : No
Encoded date : UTC 2022-04-30 20:12:49
Tagged date : UTC 2022-04-30 20:12:49

Text #32
ID : 34
Format : Timed Text
Codec ID : tx3g
Duration : 1 h 4 min
Bit rate mode : Variable
Bit rate : 78 b/s
Stream size : 36.7 KiB (0%)
Title : Vietnamese
Language : Vietnamese
Forced : No
Encoded date : UTC 2022-04-30 20:12:49
Tagged date : UTC 2022-04-30 20:12:49
下载地址:

游客,如果您要查看本帖隐藏内容请回复

游客,如果您要查看本帖隐藏内容请回复

游客,如果您要查看本帖隐藏内容请回复

游客,如果您要查看本帖隐藏内容请回复






上一篇:创造或打破(内嵌简繁中字)(2022)/ 第一季全6集/4K高清版本下载
下一篇:后半生 (内嵌简繁中字) (2019)/ 第一季全6集/4K高清版本下载
回复

使用道具 举报

56

主题

1485

帖子

4311

积分

4K家园VIP

Rank: 9Rank: 9Rank: 9

积分
4311
发表于 2022-5-1 15:27:31 | 显示全部楼层
有空一起交流一下
回复 支持 反对

使用道具 举报

0

主题

34

帖子

130

积分

新手上路

Rank: 1

积分
130
发表于 2022-5-1 17:02:37 | 显示全部楼层
有空一起交流一下
回复 支持 反对

使用道具 举报

4

主题

1326

帖子

3998

积分

4K家园VIP

Rank: 9Rank: 9Rank: 9

积分
3998
发表于 2022-5-1 20:05:49 | 显示全部楼层
楼下的接上
回复 支持 反对

使用道具 举报

0

主题

1339

帖子

4019

积分

4K家园VIP

Rank: 9Rank: 9Rank: 9

积分
4019
发表于 2022-5-2 12:16:34 | 显示全部楼层
顶起顶起顶起
回复 支持 反对

使用道具 举报

3

主题

1381

帖子

4167

积分

4K家园VIP

Rank: 9Rank: 9Rank: 9

积分
4167
发表于 2022-5-2 13:37:49 | 显示全部楼层
沙发位出租,
回复 支持 反对

使用道具 举报

50

主题

1486

帖子

4230

积分

4K家园VIP

Rank: 9Rank: 9Rank: 9

积分
4230
发表于 2022-5-2 16:32:15 来自手机 | 显示全部楼层
为保住菊花,这个一定得回复!
回复 支持 反对

使用道具 举报

0

主题

118

帖子

794

积分

新手上路

Rank: 1

积分
794
发表于 2022-5-7 17:38:36 | 显示全部楼层
RE: 鬼庄园 (内嵌简繁中字) (2022)/ 第一季全9集/4K高清版本下载 [修改]
回复 支持 反对

使用道具 举报

0

主题

10

帖子

129

积分

4K家园VIP

Rank: 9Rank: 9Rank: 9

积分
129
发表于 2022-5-8 12:07:42 来自手机 | 显示全部楼层
太好了太好了
回复 支持 反对

使用道具 举报

您需要登录后才可以回帖 登录 | 立即注册

本版积分规则

精彩图文
Archiver|手机版|TAG|Sitemap|新帖|专题|联系我们:邮箱: 4kjia.com@gmail.com   

4k家园   ©2019