后半生 (内嵌简繁中字) (2020)/ 第二季全6集/4K高清版本下载

[复制链接]

130

主题

149

帖子

1459

积分

版主

Rank: 7Rank: 7Rank: 7

积分
1459
 楼主| 发表于 2022-5-1 20:40:55 | 显示全部楼层 |阅读模式
p2595073683_副本.jpg

◎译  名 后半生 第二季/后补人生(港)/终极后人生(台)
◎片  名 After Life Season 2
◎年  代 2020
◎产  地 英国
◎类  别 剧情/喜剧
◎语  言 英语
◎上映日期 2020-04-24(美国)
◎IMDb评分  8.5/10 from 127410 users
◎IMDb链接  https://www.imdb.com/title/tt10125910/
◎豆瓣评分 8.9/10 from 3152 users
◎豆瓣链接 https://douban.com/subject/33458660/
◎集  数 6
◎片  长 30分钟
◎导  演 瑞奇·热维斯 Ricky Gervais
◎编  剧 瑞奇·热维斯 Ricky Gervais
◎主  演 瑞奇·热维斯 Ricky Gervais
        史蒂夫·斯皮尔斯 Steve Speirs
        Ethan Lawrence
        安提 Anti


◎简  介


  该喜剧以一个虚构的小镇坦布里为背景,讲述了托尼(瑞奇·热维斯饰)的故事。托尼是当地一家报社的作家,在妻子死于癌症后,他的生活发生了翻天覆地的变化。

  在第 2 季中,托尼还沉溺在妻子去世的痛苦之中,但我们看到他试着增进与周围人的友好关系。每个人都在努力解决自己的问题,加之当地报社面临着倒闭威胁,人人的处境都不容易。

  小镇当地的业余戏剧演出能否让大家振奋起来?

  《后半生》是 Derek Productions 推出的 Netflix 原创剧集。这部六集系列剧由瑞奇·热维斯担任创剧人、编剧和导演。查理·汉森担任制片人,瑞奇·热维斯和邓肯·海耶斯担任监制。

  除瑞奇·热维斯之外,回归本季的演员包括:佩内洛普·威尔顿(《唐顿庄园》、《神秘博士》)、大卫·布拉德利(《哈利波特》系列、《 权利的游戏》)、阿什利·詹森(《临时演员》)、汤姆·巴斯登(《罗马三贱客》《 路上人生》)、托尼·威(《 明日边缘》)、大卫·厄尔(《陵园路口》、《德里克》)、乔·威尔金森(《他和她》)、克里·戈德利曼(《德里克》)、曼蒂普·迪伦、乔·哈特利、鲁瓦森·科纳蒂、黛安·摩根(《路上人生》)和特蕾西·安·奥伯曼(《东区人》)。其他主演还包括皮特·艾甘(《唐顿庄园》)、 伊桑·劳伦斯(《不良教育》)和比尔·沃德(《加冕街》《Emmerdale》)。
Video
ID : 1
Format : HEVC
Format/Info : High Efficiency Video Coding
Format profile : Main 10@L5.1@High
Codec ID : V_MPEGH/ISO/HEVC
Duration : 28 min 10 s
Bit rate : 17.0 Mb/s
Width : 3 840 pixels
Height : 2 160 pixels
Display aspect ratio : 16:9
Frame rate mode : Constant
Frame rate : 25.000 FPS
Color space : YUV
Chroma subsampling : 4:2:0
Bit depth : 10 bits
Bits/(Pixel*Frame) : 0.082
Stream size : 3.35 GiB (96%)
Writing library : x265 3.3+26-193Db4916b9f:[Windows][MSVC 1925][64 bit] 10bit
Encoding settings : cpuid=1111039 / frame-threads=4 / numa-pools=16 / wpp / no-pmode / no-pme / no-psnr / no-ssim / log-level=2 / input-csp=1 / input-res=3840x2160 / interlace=0 / total-frames=42257 / level-idc=51 / high-tier=1 / uhd-bd=0 / ref=5 / no-allow-non-conformance / repeat-headers / annexb / aud / hrd / info / hash=0 / no-temporal-layers / open-gop / min-keyint=25 / keyint=250 / gop-lookahead=0 / bframes=8 / b-adapt=2 / b-pyramid / bframe-bias=0 / rc-lookahead=40 / lookahead-slices=8 / scenecut=40 / hist-scenecut=0 / radl=0 / no-splice / no-intra-refresh / ctu=64 / min-cu-size=8 / no-rect / no-amp / max-tu-size=32 / tu-inter-depth=4 / tu-intra-depth=4 / limit-tu=4 / rdoq-level=0 / dynamic-rd=0.00 / no-ssim-rd / signhide / no-tskip / nr-intra=0 / nr-inter=0 / no-constrained-intra / strong-intra-smoothing / max-merge=4 / limit-refs=1 / no-limit-modes / me=1 / subme=5 / merange=57 / temporal-mvp / no-frame-dup / no-hme / weightp / weightb / no-analyze-src-pics / deblock=-3:-3 / no-sao / no-sao-non-deblock / rd=4 / selective-sao=0 / early-skip / rskip / no-fast-intra / no-tskip-fast / no-cu-lossless / b-intra / no-splitrd-skip / rdpenalty=0 / psy-rd=2.00 / psy-rdoq=0.00 / no-rd-refine / no-lossless / cbqpoffs=0 / crqpoffs=0 / rc=crf / crf=19.0 / qcomp=0.60 / qpstep=4 / stats-write=0 / stats-read=0 / vbv-maxrate=160000 / vbv-bufsize=160000 / vbv-init=0.9 / crf-max=0.0 / crf-min=0.0 / ipratio=1.30 / pbratio=1.20 / aq-mode=1 / aq-strength=0.80 / no-cutree / zone-count=0 / no-strict-cbr / qg-size=32 / no-rc-grain / qpmax=69 / qpmin=0 / no-const-vbv / sar=1 / overscan=0 / videoformat=5 / range=0 / colorprim=1 / transfer=1 / colormatrix=1 / chromaloc=0 / display-window=0 / cll=0,0 / min-luma=0 / max-luma=1023 / log2-max-poc-lsb=8 / vui-timing-info / vui-hrd-info / slices=1 / no-opt-qp-pps / no-opt-ref-list-length-pps / no-multi-pass-opt-rps / scenecut-bias=0.05 / hist-threshold=0.01 / no-opt-cu-delta-qp / no-aq-motion / no-hdr10 / no-hdr10-opt / no-dhdr10-opt / no-idr-recovery-sei / analysis-reuse-level=0 / analysis-save-reuse-level=0 / analysis-load-reuse-level=0 / scale-factor=0 / refine-intra=0 / refine-inter=0 / refine-mv=1 / refine-ctu-distortion=0 / no-limit-sao / ctu-info=0 / no-lowpass-dct / refine-analysis-type=0 / copy-pic=1 / max-ausize-factor=1.0 / no-dynamic-refine / no-single-sei / no-hevc-aq / no-svt / no-field / qp-adaptation-range=1.00 / no-scenecut-aware-qpconformance-window-offsets / right=0 / bottom=0 / decoder-max-rate=0
Default : Yes
Forced : No
Color range : Limited
Color primaries : BT.709
Transfer characteristics : BT.709
Matrix coefficients : BT.709

Audio
ID : 2
Format : E-AC-3
Format/Info : Enhanced AC-3
Commercial name : Dolby Digital Plus
Codec ID : A_EAC3
Duration : 28 min 10 s
Bit rate mode : Constant
Bit rate : 640 kb/s
Channel(s) : 6 channels
Channel layout : L R C LFE Ls Rs
Sampling rate : 48.0 kHz
Frame rate : 31.250 FPS (1536 SPF)
Compression mode : Lossy
Stream size : 129 MiB (4%)
Title : English
Language : English
Service kind : Complete Main
Default : Yes
Forced : No

Text #1
ID : 3
Format : UTF-8
Codec ID : S_TEXT/UTF8
Codec ID/Info : UTF-8 Plain Text
Duration : 27 min 10 s
Bit rate : 88 b/s
Count of elements : 493
Stream size : 17.7 KiB (0%)
Title : SDH
Language : English
Default : No
Forced : No

Text #2
ID : 4
Format : UTF-8
Codec ID : S_TEXT/UTF8
Codec ID/Info : UTF-8 Plain Text
Duration : 27 min 21 s
Bit rate : 114 b/s
Count of elements : 437
Stream size : 22.8 KiB (0%)
Language : Arabic
Default : No
Forced : No

Text #3
ID : 5
Format : UTF-8
Codec ID : S_TEXT/UTF8
Codec ID/Info : UTF-8 Plain Text
Duration : 27 min 21 s
Bit rate : 59 b/s
Count of elements : 433
Stream size : 11.9 KiB (0%)
Language : Czech
Default : No
Forced : No

Text #4
ID : 6
Format : UTF-8
Codec ID : S_TEXT/UTF8
Codec ID/Info : UTF-8 Plain Text
Duration : 27 min 21 s
Bit rate : 64 b/s
Count of elements : 381
Stream size : 12.9 KiB (0%)
Language : Danish
Default : No
Forced : No

Text #5
ID : 7
Format : UTF-8
Codec ID : S_TEXT/UTF8
Codec ID/Info : UTF-8 Plain Text
Duration : 27 min 19 s
Bit rate : 59 b/s
Count of elements : 408
Stream size : 12.0 KiB (0%)
Language : German
Default : No
Forced : No

Text #6
ID : 8
Format : UTF-8
Codec ID : S_TEXT/UTF8
Codec ID/Info : UTF-8 Plain Text
Duration : 27 min 21 s
Bit rate : 111 b/s
Count of elements : 445
Stream size : 22.3 KiB (0%)
Language : Greek
Default : No
Forced : No

Text #7
ID : 9
Format : UTF-8
Codec ID : S_TEXT/UTF8
Codec ID/Info : UTF-8 Plain Text
Duration : 26 min 13 s
Bit rate : 62 b/s
Count of elements : 428
Stream size : 12.1 KiB (0%)
Language : Spanish
Default : No
Forced : No

Text #8
ID : 10
Format : UTF-8
Codec ID : S_TEXT/UTF8
Codec ID/Info : UTF-8 Plain Text
Duration : 27 min 21 s
Bit rate : 61 b/s
Count of elements : 415
Stream size : 12.2 KiB (0%)
Title : European
Language : Spanish
Default : No
Forced : No

Text #9
ID : 11
Format : UTF-8
Codec ID : S_TEXT/UTF8
Codec ID/Info : UTF-8 Plain Text
Duration : 27 min 19 s
Bit rate : 62 b/s
Count of elements : 352
Stream size : 12.4 KiB (0%)
Language : Finnish
Default : No
Forced : No

Text #10
ID : 12
Format : UTF-8
Codec ID : S_TEXT/UTF8
Codec ID/Info : UTF-8 Plain Text
Duration : 27 min 21 s
Bit rate : 60 b/s
Count of elements : 405
Stream size : 12.1 KiB (0%)
Language : French
Default : No
Forced : No

Text #11
ID : 13
Format : UTF-8
Codec ID : S_TEXT/UTF8
Codec ID/Info : UTF-8 Plain Text
Duration : 26 min 41 s
Bit rate : 102 b/s
Count of elements : 443
Stream size : 20.0 KiB (0%)
Language : Hebrew
Default : No
Forced : No

Text #12
ID : 14
Format : UTF-8
Codec ID : S_TEXT/UTF8
Codec ID/Info : UTF-8 Plain Text
Duration : 27 min 21 s
Bit rate : 62 b/s
Count of elements : 429
Stream size : 12.5 KiB (0%)
Language : Hungarian
Default : No
Forced : No

Text #13
ID : 15
Format : UTF-8
Codec ID : S_TEXT/UTF8
Codec ID/Info : UTF-8 Plain Text
Duration : 27 min 21 s
Bit rate : 66 b/s
Count of elements : 441
Stream size : 13.3 KiB (0%)
Language : Indonesian
Default : No
Forced : No

Text #14
ID : 16
Format : UTF-8
Codec ID : S_TEXT/UTF8
Codec ID/Info : UTF-8 Plain Text
Duration : 27 min 21 s
Bit rate : 58 b/s
Count of elements : 423
Stream size : 11.7 KiB (0%)
Language : Italian
Default : No
Forced : No

Text #15
ID : 17
Format : UTF-8
Codec ID : S_TEXT/UTF8
Codec ID/Info : UTF-8 Plain Text
Duration : 27 min 18 s
Bit rate : 64 b/s
Count of elements : 430
Stream size : 12.9 KiB (0%)
Language : Japanese
Default : No
Forced : No

Text #16
ID : 18
Format : UTF-8
Codec ID : S_TEXT/UTF8
Codec ID/Info : UTF-8 Plain Text
Duration : 27 min 21 s
Bit rate : 89 b/s
Count of elements : 456
Stream size : 18.0 KiB (0%)
Language : Korean
Default : No
Forced : No

Text #17
ID : 19
Format : UTF-8
Codec ID : S_TEXT/UTF8
Codec ID/Info : UTF-8 Plain Text
Duration : 27 min 21 s
Bit rate : 57 b/s
Count of elements : 385
Stream size : 11.6 KiB (0%)
Language : Norwegian Bokmal
Default : No
Forced : No

Text #18
ID : 20
Format : UTF-8
Codec ID : S_TEXT/UTF8
Codec ID/Info : UTF-8 Plain Text
Duration : 27 min 21 s
Bit rate : 54 b/s
Count of elements : 339
Stream size : 10.9 KiB (0%)
Language : Dutch
Default : No
Forced : No

Text #19
ID : 21
Format : UTF-8
Codec ID : S_TEXT/UTF8
Codec ID/Info : UTF-8 Plain Text
Duration : 27 min 21 s
Bit rate : 57 b/s
Count of elements : 421
Stream size : 11.5 KiB (0%)
Language : Polish
Default : No
Forced : No

Text #20
ID : 22
Format : UTF-8
Codec ID : S_TEXT/UTF8
Codec ID/Info : UTF-8 Plain Text
Duration : 27 min 19 s
Bit rate : 65 b/s
Count of elements : 417
Stream size : 13.2 KiB (0%)
Language : Portuguese
Default : No
Forced : No

Text #21
ID : 23
Format : UTF-8
Codec ID : S_TEXT/UTF8
Codec ID/Info : UTF-8 Plain Text
Duration : 27 min 21 s
Bit rate : 64 b/s
Count of elements : 405
Stream size : 12.9 KiB (0%)
Title : Brazilian
Language : Portuguese
Default : No
Forced : No

Text #22
ID : 24
Format : UTF-8
Codec ID : S_TEXT/UTF8
Codec ID/Info : UTF-8 Plain Text
Duration : 26 min 13 s
Bit rate : 76 b/s
Count of elements : 427
Stream size : 14.7 KiB (0%)
Language : Romanian
Default : No
Forced : No

Text #23
ID : 25
Format : UTF-8
Codec ID : S_TEXT/UTF8
Codec ID/Info : UTF-8 Plain Text
Duration : 27 min 19 s
Bit rate : 103 b/s
Count of elements : 436
Stream size : 20.8 KiB (0%)
Language : Russian
Default : No
Forced : No

Text #24
ID : 26
Format : UTF-8
Codec ID : S_TEXT/UTF8
Codec ID/Info : UTF-8 Plain Text
Duration : 27 min 21 s
Bit rate : 60 b/s
Count of elements : 400
Stream size : 12.0 KiB (0%)
Language : Swedish
Default : No
Forced : No

Text #25
ID : 27
Format : UTF-8
Codec ID : S_TEXT/UTF8
Codec ID/Info : UTF-8 Plain Text
Duration : 27 min 21 s
Bit rate : 169 b/s
Count of elements : 442
Stream size : 34.0 KiB (0%)
Language : Thai
Default : No
Forced : No

Text #26
ID : 28
Format : UTF-8
Codec ID : S_TEXT/UTF8
Codec ID/Info : UTF-8 Plain Text
Duration : 27 min 21 s
Bit rate : 64 b/s
Count of elements : 435
Stream size : 12.9 KiB (0%)
Language : Turkish
Default : No
Forced : No

Text #27
ID : 29
Format : UTF-8
Codec ID : S_TEXT/UTF8
Codec ID/Info : UTF-8 Plain Text
Duration : 27 min 21 s
Bit rate : 88 b/s
Count of elements : 442
Stream size : 17.7 KiB (0%)
Language : Vietnamese
Default : No
Forced : No

Text #28
ID : 30
Format : UTF-8
Codec ID : S_TEXT/UTF8
Codec ID/Info : UTF-8 Plain Text
Duration : 27 min 21 s
Bit rate : 73 b/s
Count of elements : 442
Stream size : 14.8 KiB (0%)
Title : 中文(简体)
Language : 中文
Default : No
Forced : No

Text #29
ID : 31
Format : UTF-8
Codec ID : S_TEXT/UTF8
Codec ID/Info : UTF-8 Plain Text
Duration : 27 min 21 s
Bit rate : 72 b/s
Count of elements : 443
Stream size : 14.5 KiB (0%)
Title : 中文(繁体)
Language : 中文
Default : No
Forced : No

下载地址:

游客,如果您要查看本帖隐藏内容请回复

游客,如果您要查看本帖隐藏内容请回复
  



.

上一篇:后半生 (内嵌简繁中字) (2019)/ 第一季全6集/4K高清版本下载
下一篇:麻木不仁(内嵌简繁中字) (2019)/ 第一季全10集/4K高清版本下载
回复

使用道具 举报

49

主题

1471

帖子

4215

积分

4K家园VIP

Rank: 9Rank: 9Rank: 9

积分
4215
发表于 2022-5-1 20:41:22 | 显示全部楼层
好,很好,非常好!
回复 支持 反对

使用道具 举报

2

主题

1153

帖子

3479

积分

4K家园VIP

Rank: 9Rank: 9Rank: 9

积分
3479
发表于 2022-5-2 03:29:44 | 显示全部楼层
是爷们的娘们的都帮顶!大力支持
回复 支持 反对

使用道具 举报

0

主题

1390

帖子

4032

积分

4K家园VIP

Rank: 9Rank: 9Rank: 9

积分
4032
发表于 2022-5-2 03:39:23 来自手机 | 显示全部楼层
试试看吧
回复 支持 反对

使用道具 举报

0

主题

1397

帖子

4037

积分

4K家园VIP

Rank: 9Rank: 9Rank: 9

积分
4037
发表于 2022-5-5 09:55:25 | 显示全部楼层
感谢分享
回复 支持 反对

使用道具 举报

6

主题

1453

帖子

4205

积分

4K家园VIP

Rank: 9Rank: 9Rank: 9

积分
4205
发表于 2022-5-6 10:00:49 | 显示全部楼层
这么强,支持楼主,佩服
回复 支持 反对

使用道具 举报

您需要登录后才可以回帖 登录 | 立即注册

本版积分规则

精彩图文
Archiver|手机版|TAG|Sitemap|新帖|专题|联系我们:邮箱: 4kjia.com@gmail.com   

4k家园   ©2019