麻木不仁(内嵌简繁中字) (2019)/ 第一季全10集/4K高清版本下载

[复制链接]

130

主题

149

帖子

1459

积分

版主

Rank: 7Rank: 7Rank: 7

积分
1459
 楼主| 发表于 2022-5-1 20:56:03 | 显示全部楼层 |阅读模式
p2555053174_副本.jpg

◎译  名 麻木不仁 第一季 / 死生之交(港 / 台) / 生死之交
◎片  名 Dead To Me Season 1
◎年  代 2019
◎产  地 美国
◎类  别 喜剧
◎语  言 英语
◎上映日期 2019-05-03(美国)
◎IMDb评分  8.0/10 from 72981 users
◎IMDb链接  http://www.imdb.com/title/tt8064302
◎豆瓣评分 7.9/10 from 4357 users
◎豆瓣链接 https://movie.douban.com/subject/30190634/
◎集  数 10
◎编  剧 丽兹·费尔德曼 Liz Feldman / Kelly Hutchinson / Abe Sylvia
◎主  演 克里斯蒂娜·艾伯盖特 Christina Applegate
      琳达·卡德里尼 Linda Cardellini
      爱德华·阿斯纳 Edward Asner
      麦克斯·詹金斯 Max Jenkins
      詹姆斯·麦斯登 James Marsden
      卢克·勒斯勒尔 Luke Roessler
      戴安娜·玛丽亚·里瓦 Diana Maria Riva
      苏茜·中村 Suzy Nakamura
      蒂芙妮·伊冯娜·考克斯 Tiffany Yvonne Cox
      里克·霍姆斯 Rick Holmes
      塔拉·卡拉西安 Tara Karsian
      Sam McCarthy
      Indigo Carey
      Ericka Kreutz


◎简  介  


  詹姆斯·麦斯登、艾德·阿斯纳(《飞屋环游记》《圣诞精灵》)加盟Netflix新剧《Dead to Me》,琳达·卡德里尼、克里斯蒂娜·艾伯盖特(《老友记》《坏妈妈》)参演。丽兹·费尔德曼(《破产姐妹》《幸福大家庭》)编写剧本,威尔·法瑞尔和亚当·麦凯的制片公司联合CBS TV制作。

  该剧共10集,被描述为喜剧版的《大小谎言》,聚焦寡妇珍(艾伯盖特)和无拘无束、拥有惊人秘密的朱迪(卡德里尼)之间的一段强大的友谊。

  麦斯登饰演朱迪的爱慕对象,看起来很自信也很有逻辑,但其实是一个有着复杂过去的脆弱男人,被朱迪宽阔的胸怀和自由的精神所吸引。阿斯纳饰演的Abe住在朱迪工作的一个生活机构里,他比大多数人都机智敏捷,和朱迪关系甜蜜,经常依靠对方度过生活的波折。

Video
ID : 1
Format : HEVC
Format/Info : High Efficiency Video Coding
Format profile : Main 10@L5@Main
HDR format : Dolby Vision, Version 1.0, dvhe.05.06, BL+RPU
Codec ID : dvhe
Codec ID/Info : High Efficiency Video Coding with Dolby Vision
Duration : 33 min 54 s
Bit rate : 15.2 Mb/s
Width : 3 840 pixels
Height : 2 160 pixels
Display aspect ratio : 16:9
Frame rate mode : Constant
Frame rate : 23.976 (24000/1001) FPS
Color space : YUV
Chroma subsampling : 4:2:0
Bit depth : 10 bits
Bits/(Pixel*Frame) : 0.076
Stream size : 3.59 GiB (96%)
Default : Yes
Alternate group : 1
Encoded date : UTC 2022-04-30 20:01:19
Tagged date : UTC 2022-04-30 20:01:37
Color range : Full
Codec configuration box : hvcC+dvcC

Audio
ID : 2
Format : E-AC-3
Format/Info : Enhanced AC-3
Commercial name : Dolby Digital Plus
Codec ID : ec-3
Duration : 33 min 54 s
Bit rate mode : Constant
Bit rate : 640 kb/s
Maximum bit rate : 676 kb/s
Channel(s) : 6 channels
Channel layout : L R C LFE Ls Rs
Sampling rate : 48.0 kHz
Frame rate : 31.250 FPS (1536 SPF)
Compression mode : Lossy
Stream size : 155 MiB (4%)
Title : English
Language : English
Service kind : Complete Main
Default : Yes
Alternate group : 1
Tagged date : UTC 2022-04-30 20:01:37

Text #1
ID : 3
Format : Timed Text
Codec ID : tx3g
Duration : 33 min 7 s
Bit rate mode : Variable
Bit rate : 84 b/s
Stream size : 20.3 KiB (0%)
Title : English
Language : English
Forced : No
Encoded date : UTC 2022-04-30 20:01:36
Tagged date : UTC 2022-04-30 20:01:37

Text #2
ID : 4
Format : Timed Text
Codec ID : tx3g
Duration : 31 min 29 s
Bit rate mode : Variable
Bit rate : 113 b/s
Stream size : 26.2 KiB (0%)
Title : Arabic
Language : Arabic
Forced : No
Encoded date : UTC 2022-04-30 20:01:36
Tagged date : UTC 2022-04-30 20:01:37

Text #3
ID : 5
Format : Timed Text
Codec ID : tx3g
Duration : 33 min 5 s
Bit rate mode : Variable
Bit rate : 70 b/s
Stream size : 17.1 KiB (0%)
Title : 中文-简体
Language : 中文
Forced : No
Encoded date : UTC 2022-04-30 20:01:36
Tagged date : UTC 2022-04-30 20:01:37

Text #4
ID : 6
Format : Timed Text
Codec ID : tx3g
Duration : 33 min 5 s
Bit rate mode : Variable
Bit rate : 66 b/s
Stream size : 15.9 KiB (0%)
Title : 中文-繁体
Language : 中文
Forced : No
Encoded date : UTC 2022-04-30 20:01:36
Tagged date : UTC 2022-04-30 20:01:37

Text #5
ID : 7
Format : Timed Text
Codec ID : tx3g
Duration : 33 min 5 s
Bit rate mode : Variable
Bit rate : 63 b/s
Stream size : 15.2 KiB (0%)
Title : Croatian
Language : Croatian
Forced : No
Encoded date : UTC 2022-04-30 20:01:36
Tagged date : UTC 2022-04-30 20:01:37

Text #6
ID : 8
Format : Timed Text
Codec ID : tx3g
Duration : 33 min 5 s
Bit rate mode : Variable
Bit rate : 64 b/s
Stream size : 15.5 KiB (0%)
Title : Czech
Language : Czech
Forced : No
Encoded date : UTC 2022-04-30 20:01:36
Tagged date : UTC 2022-04-30 20:01:37

Text #7
ID : 9
Format : Timed Text
Codec ID : tx3g
Duration : 33 min 5 s
Bit rate mode : Variable
Bit rate : 63 b/s
Stream size : 15.2 KiB (0%)
Title : Danish
Language : Danish
Forced : No
Encoded date : UTC 2022-04-30 20:01:36
Tagged date : UTC 2022-04-30 20:01:37

Text #8
ID : 10
Format : Timed Text
Codec ID : tx3g
Duration : 30 min 24 s
Bit rate mode : Variable
Bit rate : 58 b/s
Stream size : 12.9 KiB (0%)
Title : Dutch
Language : Dutch
Forced : No
Encoded date : UTC 2022-04-30 20:01:36
Tagged date : UTC 2022-04-30 20:01:37

Text #9
ID : 11
Format : Timed Text
Codec ID : tx3g
Duration : 33 min 5 s
Bit rate mode : Variable
Bit rate : 57 b/s
Stream size : 13.8 KiB (0%)
Title : Finnish
Language : Finnish
Forced : No
Encoded date : UTC 2022-04-30 20:01:36
Tagged date : UTC 2022-04-30 20:01:37

Text #10
ID : 12
Format : Timed Text
Codec ID : tx3g
Duration : 33 min 5 s
Bit rate mode : Variable
Bit rate : 62 b/s
Stream size : 15.0 KiB (0%)
Title : French
Language : French
Forced : No
Encoded date : UTC 2022-04-30 20:01:36
Tagged date : UTC 2022-04-30 20:01:37

Text #11
ID : 13
Format : Timed Text
Codec ID : tx3g
Duration : 33 min 5 s
Bit rate mode : Variable
Bit rate : 60 b/s
Stream size : 14.6 KiB (0%)
Title : German
Language : German
Forced : No
Encoded date : UTC 2022-04-30 20:01:36
Tagged date : UTC 2022-04-30 20:01:37

Text #12
ID : 14
Format : Timed Text
Codec ID : tx3g
Duration : 33 min 5 s
Bit rate mode : Variable
Bit rate : 100 b/s
Stream size : 24.2 KiB (0%)
Title : Greek
Language : Greek
Forced : No
Encoded date : UTC 2022-04-30 20:01:36
Tagged date : UTC 2022-04-30 20:01:37

Text #13
ID : 15
Format : Timed Text
Codec ID : tx3g
Duration : 33 min 5 s
Bit rate mode : Variable
Bit rate : 97 b/s
Stream size : 23.5 KiB (0%)
Title : Hebrew
Language : Hebrew
Forced : No
Encoded date : UTC 2022-04-30 20:01:36
Tagged date : UTC 2022-04-30 20:01:37

Text #14
ID : 16
Format : Timed Text
Codec ID : tx3g
Duration : 33 min 5 s
Bit rate mode : Variable
Bit rate : 62 b/s
Stream size : 15.0 KiB (0%)
Title : Hungarian
Language : Hungarian
Forced : No
Encoded date : UTC 2022-04-30 20:01:36
Tagged date : UTC 2022-04-30 20:01:37

Text #15
ID : 17
Format : Timed Text
Codec ID : tx3g
Duration : 33 min 5 s
Bit rate mode : Variable
Bit rate : 74 b/s
Stream size : 18.0 KiB (0%)
Title : Indonesian
Language : Indonesian
Forced : No
Encoded date : UTC 2022-04-30 20:01:36
Tagged date : UTC 2022-04-30 20:01:37

Text #16
ID : 18
Format : Timed Text
Codec ID : tx3g
Duration : 33 min 5 s
Bit rate mode : Variable
Bit rate : 61 b/s
Stream size : 14.9 KiB (0%)
Title : Italian
Language : Italian
Forced : No
Encoded date : UTC 2022-04-30 20:01:36
Tagged date : UTC 2022-04-30 20:01:37

Text #17
ID : 19
Format : Timed Text
Codec ID : tx3g
Duration : 33 min 5 s
Bit rate mode : Variable
Bit rate : 78 b/s
Stream size : 18.8 KiB (0%)
Title : Japanese
Language : Japanese
Forced : No
Encoded date : UTC 2022-04-30 20:01:36
Tagged date : UTC 2022-04-30 20:01:37

Text #18
ID : 20
Format : Timed Text
Codec ID : tx3g
Duration : 33 min 5 s
Bit rate mode : Variable
Bit rate : 83 b/s
Stream size : 20.0 KiB (0%)
Title : Korean
Language : Korean
Forced : No
Encoded date : UTC 2022-04-30 20:01:36
Tagged date : UTC 2022-04-30 20:01:37

Text #19
ID : 21
Format : Timed Text
Codec ID : tx3g
Duration : 33 min 5 s
Bit rate mode : Variable
Bit rate : 69 b/s
Stream size : 16.7 KiB (0%)
Title : Malay
Language : Malay
Forced : No
Encoded date : UTC 2022-04-30 20:01:37
Tagged date : UTC 2022-04-30 20:01:37

Text #20
ID : 22
Format : Timed Text
Codec ID : tx3g
Duration : 31 min 28 s
Bit rate mode : Variable
Bit rate : 63 b/s
Stream size : 14.6 KiB (0%)
Title : Norwegian
Language : Norwegian Bokmal
Forced : No
Encoded date : UTC 2022-04-30 20:01:37
Tagged date : UTC 2022-04-30 20:01:37

Text #21
ID : 23
Format : Timed Text
Codec ID : tx3g
Duration : 33 min 5 s
Bit rate mode : Variable
Bit rate : 60 b/s
Stream size : 14.5 KiB (0%)
Title : Polish
Language : Polish
Forced : No
Encoded date : UTC 2022-04-30 20:01:37
Tagged date : UTC 2022-04-30 20:01:37

Text #22
ID : 24
Format : Timed Text
Codec ID : tx3g
Duration : 33 min 5 s
Bit rate mode : Variable
Bit rate : 61 b/s
Stream size : 14.8 KiB (0%)
Title : Portuguese
Language : Portuguese
Forced : No
Encoded date : UTC 2022-04-30 20:01:37
Tagged date : UTC 2022-04-30 20:01:37

Text #23
ID : 25
Format : Timed Text
Codec ID : tx3g
Duration : 33 min 5 s
Bit rate mode : Variable
Bit rate : 63 b/s
Stream size : 15.4 KiB (0%)
Title : Portuguese
Language : Portuguese
Forced : No
Encoded date : UTC 2022-04-30 20:01:37
Tagged date : UTC 2022-04-30 20:01:37

Text #24
ID : 26
Format : Timed Text
Codec ID : tx3g
Duration : 33 min 5 s
Bit rate mode : Variable
Bit rate : 71 b/s
Stream size : 17.3 KiB (0%)
Title : Romanian
Language : Romanian
Forced : No
Encoded date : UTC 2022-04-30 20:01:37
Tagged date : UTC 2022-04-30 20:01:37

Text #25
ID : 27
Format : Timed Text
Codec ID : tx3g
Duration : 33 min 5 s
Bit rate mode : Variable
Bit rate : 99 b/s
Stream size : 24.0 KiB (0%)
Title : Russian
Language : Russian
Forced : No
Encoded date : UTC 2022-04-30 20:01:37
Tagged date : UTC 2022-04-30 20:01:37

Text #26
ID : 28
Format : Timed Text
Codec ID : tx3g
Duration : 33 min 5 s
Bit rate mode : Variable
Bit rate : 61 b/s
Stream size : 14.8 KiB (0%)
Title : Spanish-EU
Language : Spanish
Forced : No
Encoded date : UTC 2022-04-30 20:01:37
Tagged date : UTC 2022-04-30 20:01:37

Text #27
ID : 29
Format : Timed Text
Codec ID : tx3g
Duration : 33 min 5 s
Bit rate mode : Variable
Bit rate : 59 b/s
Stream size : 14.3 KiB (0%)
Title : Spanish-EU
Language : Spanish
Forced : No
Encoded date : UTC 2022-04-30 20:01:37
Tagged date : UTC 2022-04-30 20:01:37

Text #28
ID : 30
Format : Timed Text
Codec ID : tx3g
Duration : 33 min 5 s
Bit rate mode : Variable
Bit rate : 59 b/s
Stream size : 14.3 KiB (0%)
Title : Swedish
Language : Swedish
Forced : No
Encoded date : UTC 2022-04-30 20:01:37
Tagged date : UTC 2022-04-30 20:01:37

Text #29
ID : 31
Format : Timed Text
Codec ID : tx3g
Duration : 33 min 5 s
Bit rate mode : Variable
Bit rate : 160 b/s
Stream size : 38.7 KiB (0%)
Title : Thai
Language : Thai
Forced : No
Encoded date : UTC 2022-04-30 20:01:37
Tagged date : UTC 2022-04-30 20:01:37

Text #30
ID : 32
Format : Timed Text
Codec ID : tx3g
Duration : 33 min 5 s
Bit rate mode : Variable
Bit rate : 65 b/s
Stream size : 15.9 KiB (0%)
Title : Turkish
Language : Turkish
Forced : No
Encoded date : UTC 2022-04-30 20:01:37
Tagged date : UTC 2022-04-30 20:01:37

Text #31
ID : 33
Format : Timed Text
Codec ID : tx3g
Duration : 33 min 5 s
Bit rate mode : Variable
Bit rate : 106 b/s
Stream size : 25.8 KiB (0%)
Title : Vietnamese
Language : Vietnamese
Forced : No
Encoded date : UTC 2022-04-30 20:01:37
Tagged date : UTC 2022-04-30 20:01:37

下载地址:

游客,如果您要查看本帖隐藏内容请回复

游客,如果您要查看本帖隐藏内容请回复

游客,如果您要查看本帖隐藏内容请回复

游客,如果您要查看本帖隐藏内容请回复




.

上一篇:后半生 (内嵌简繁中字) (2020)/ 第二季全6集/4K高清版本下载
下一篇:麻木不仁(内嵌简繁中字) (2020)/ 第二季全10集/4K高清版本下载
回复

使用道具 举报

60

主题

1489

帖子

4323

积分

4K家园VIP

Rank: 9Rank: 9Rank: 9

积分
4323
发表于 2022-5-1 20:56:14 | 显示全部楼层
我了个去,顶了
回复 支持 反对

使用道具 举报

0

主题

118

帖子

794

积分

新手上路

Rank: 1

积分
794
发表于 2022-5-1 21:27:06 | 显示全部楼层
参与/回复主题关闭
RE: 麻木不仁(内嵌
回复 支持 反对

使用道具 举报

0

主题

8

帖子

116

积分

新手上路

Rank: 1

积分
116
发表于 2022-5-2 08:12:45 | 显示全部楼层
222222
回复

使用道具 举报

2

主题

1166

帖子

3520

积分

4K家园VIP

Rank: 9Rank: 9Rank: 9

积分
3520
发表于 2022-5-9 09:31:35 | 显示全部楼层
为毛老子总也抢不到沙发?!!
回复 支持 反对

使用道具 举报

0

主题

8230

帖子

1万

积分

4K家园VIP

Rank: 9Rank: 9Rank: 9

积分
18830
发表于 2022-5-9 11:22:53 | 显示全部楼层
太好啦&萬分感謝版主的無私發佈分享%
回复 支持 反对

使用道具 举报

1

主题

1354

帖子

4090

积分

4K家园VIP

Rank: 9Rank: 9Rank: 9

积分
4090
发表于 2022-5-9 17:29:24 | 显示全部楼层
OMG!介是啥东东!!!
回复 支持 反对

使用道具 举报

55

主题

1606

帖子

4634

积分

4K家园VIP

Rank: 9Rank: 9Rank: 9

积分
4634
发表于 2022-5-10 03:54:39 | 显示全部楼层
占位编辑
回复 支持 反对

使用道具 举报

0

主题

1691

帖子

4625

积分

4K家园VIP

Rank: 9Rank: 9Rank: 9

积分
4625
发表于 2022-5-13 10:34:23 | 显示全部楼层
顶起出售广告位
回复 支持 反对

使用道具 举报

0

主题

8230

帖子

1万

积分

4K家园VIP

Rank: 9Rank: 9Rank: 9

积分
18830
发表于 2022-5-13 11:37:03 | 显示全部楼层
太好啦&萬分感謝版主的無私發佈分享%
回复 支持 反对

使用道具 举报

您需要登录后才可以回帖 登录 | 立即注册

本版积分规则

精彩图文
Archiver|手机版|TAG|Sitemap|新帖|专题|联系我们:邮箱: 4kjia.com@gmail.com   

4k家园   ©2019