麻木不仁(内嵌简繁中字) (2020)/ 第二季全10集/4K高清版本下载

[复制链接]

主题

帖子

0

积分

超级版主

Rank: 8Rank: 8

积分
0
 楼主| 发表于 2022-5-1 21:04:43 | 显示全部楼层 |阅读模式
p2595139784 (1)_副本.png

◎译  名 麻木不仁 第二季/生死之交/死生之交(港/台)/新寡疯狂日记
◎片  名 Dead to Me Season 2
◎年  代 2020
◎产  地 美国
◎类  别 剧情/喜剧
◎语  言 英语
◎上映日期 2020-05-08(美国)
◎IMDb评分  8.8/10 from 64 users
◎IMDb链接  https://www.imdb.com/title/tt10433266/
◎豆瓣评分 /10 from 0 users
◎豆瓣链接 https://douban.com/subject/33651763/
◎片  长 30分钟
◎导  演 西尔弗·特里 Silver Tree
◎编  剧 丽兹·费尔德曼 Liz Feldman
◎主  演 克里斯蒂娜·艾伯盖特 Christina Applegate
       琳达·卡德里尼 Linda Cardellini
       詹姆斯·麦斯登 James Marsden
       贝丝·霍伊特 Beth Hoyt


◎简  介


  詹(克里斯蒂娜·艾伯盖特饰)、朱迪(琳达·卡德里尼饰)以及纠缠她们的谎言卷土重来。故事接着那次血腥的后院揭秘展开,这对天马行空的朋友继续努力隐藏她们的秘密。镇上来了一位令人惊讶的新访客,佩雷斯警探(戴安娜·玛丽亚·里瓦饰)一直对她们紧追不舍,因此詹和朱迪采取了极端的措施,不惜一切代价来保护她们爱的人和彼此。《麻木不仁》由荣获艾美奖的创剧人丽兹·费尔德曼倾心打造,第二季中继续带来让人欲罢不能的黑暗元素,并且赌注更高、友谊更深厚,造成创伤比以往任何时候都更严重。
Video
ID : 1
Format : HEVC
Format/Info : High Efficiency Video Coding
Format profile : Main 10@L5@Main
HDR format : Dolby Vision, Version 1.0, dvhe.05.06, BL+RPU
Codec ID : dvhe
Codec ID/Info : High Efficiency Video Coding with Dolby Vision
Duration : 34 min 46 s
Bit rate : 15.0 Mb/s
Width : 3 840 pixels
Height : 2 160 pixels
Display aspect ratio : 16:9
Frame rate mode : Constant
Frame rate : 23.976 (24000/1001) FPS
Color space : YUV
Chroma subsampling : 4:2:0
Bit depth : 10 bits
Bits/(Pixel*Frame) : 0.076
Stream size : 3.65 GiB (97%)
Default : Yes
Alternate group : 1
Encoded date : UTC 2022-04-30 20:03:08
Tagged date : UTC 2022-04-30 20:03:30
Color range : Full
Codec configuration box : hvcC+dvcC

Audio
ID : 2
Format : E-AC-3
Format/Info : Enhanced AC-3
Commercial name : Dolby Digital Plus
Codec ID : ec-3
Duration : 34 min 47 s
Bit rate mode : Constant
Bit rate : 448 kb/s
Maximum bit rate : 473 kb/s
Channel(s) : 6 channels
Channel layout : L R C LFE Ls Rs
Sampling rate : 48.0 kHz
Frame rate : 31.250 FPS (1536 SPF)
Compression mode : Lossy
Stream size : 111 MiB (3%)
Title : English
Language : English
Service kind : Complete Main
Default : Yes
Alternate group : 1
Tagged date : UTC 2022-04-30 20:03:30

Text #1
ID : 3
Format : Timed Text
Codec ID : tx3g
Duration : 33 min 34 s
Bit rate mode : Variable
Bit rate : 86 b/s
Stream size : 21.1 KiB (0%)
Title : English
Language : English
Forced : No
Encoded date : UTC 2022-04-30 20:03:26
Tagged date : UTC 2022-04-30 20:03:30

Text #2
ID : 4
Format : Timed Text
Codec ID : tx3g
Duration : 33 min 32 s
Bit rate mode : Variable
Bit rate : 130 b/s
Stream size : 31.9 KiB (0%)
Title : Arabic
Language : Arabic
Forced : No
Encoded date : UTC 2022-04-30 20:03:26
Tagged date : UTC 2022-04-30 20:03:30

Text #3
ID : 5
Format : Timed Text
Codec ID : tx3g
Duration : 33 min 32 s
Bit rate mode : Variable
Bit rate : 82 b/s
Stream size : 20.1 KiB (0%)
Title : 中文-简体
Language : 中文
Forced : No
Encoded date : UTC 2022-04-30 20:03:26
Tagged date : UTC 2022-04-30 20:03:30

Text #4
ID : 6
Format : Timed Text
Codec ID : tx3g
Duration : 33 min 32 s
Bit rate mode : Variable
Bit rate : 73 b/s
Stream size : 18.0 KiB (0%)
Title : 中文-繁体
Forced : No
Encoded date : UTC 2022-04-30 20:03:26
Tagged date : UTC 2022-04-30 20:03:30


Text #5
ID : 7
Format : Timed Text
Codec ID : tx3g
Duration : 33 min 32 s
Bit rate mode : Variable
Bit rate : 64 b/s
Stream size : 15.7 KiB (0%)
Title : Croatian
Language : Croatian
Forced : No
Encoded date : UTC 2022-04-30 20:03:26
Tagged date : UTC 2022-04-30 20:03:30

Text #6
ID : 8
Format : Timed Text
Codec ID : tx3g
Duration : 33 min 32 s
Bit rate mode : Variable
Bit rate : 65 b/s
Stream size : 16.0 KiB (0%)
Title : Czech
Language : Czech
Forced : No
Encoded date : UTC 2022-04-30 20:03:26
Tagged date : UTC 2022-04-30 20:03:30

Text #7
ID : 9
Format : Timed Text
Codec ID : tx3g
Duration : 33 min 32 s
Bit rate mode : Variable
Bit rate : 66 b/s
Stream size : 16.3 KiB (0%)
Title : Danish
Language : Danish
Forced : No
Encoded date : UTC 2022-04-30 20:03:26
Tagged date : UTC 2022-04-30 20:03:30

Text #8
ID : 10
Format : Timed Text
Codec ID : tx3g
Duration : 33 min 32 s
Bit rate mode : Variable
Bit rate : 60 b/s
Stream size : 14.7 KiB (0%)
Title : Dutch
Language : Dutch
Forced : No
Encoded date : UTC 2022-04-30 20:03:26
Tagged date : UTC 2022-04-30 20:03:30

Text #9
ID : 11
Format : Timed Text
Codec ID : tx3g
Duration : 33 min 32 s
Bit rate mode : Variable
Bit rate : 59 b/s
Stream size : 14.6 KiB (0%)
Title : Finnish
Language : Finnish
Forced : No
Encoded date : UTC 2022-04-30 20:03:26
Tagged date : UTC 2022-04-30 20:03:30

Text #10
ID : 12
Format : Timed Text
Codec ID : tx3g
Duration : 33 min 32 s
Bit rate mode : Variable
Bit rate : 65 b/s
Stream size : 15.9 KiB (0%)
Title : French
Language : French
Forced : No
Encoded date : UTC 2022-04-30 20:03:26
Tagged date : UTC 2022-04-30 20:03:30

Text #11
ID : 13
Format : Timed Text
Codec ID : tx3g
Duration : 33 min 32 s
Bit rate mode : Variable
Bit rate : 69 b/s
Stream size : 16.9 KiB (0%)
Title : German
Language : German
Forced : No
Encoded date : UTC 2022-04-30 20:03:26
Tagged date : UTC 2022-04-30 20:03:30

Text #12
ID : 14
Format : Timed Text
Codec ID : tx3g
Duration : 33 min 32 s
Bit rate mode : Variable
Bit rate : 110 b/s
Stream size : 27.1 KiB (0%)
Title : Greek
Language : Greek
Forced : No
Encoded date : UTC 2022-04-30 20:03:26
Tagged date : UTC 2022-04-30 20:03:30

Text #13
ID : 15
Format : Timed Text
Codec ID : tx3g
Duration : 31 min 56 s
Bit rate mode : Variable
Bit rate : 118 b/s
Stream size : 27.5 KiB (0%)
Title : Hebrew
Language : Hebrew
Forced : No
Encoded date : UTC 2022-04-30 20:03:26
Tagged date : UTC 2022-04-30 20:03:30

Text #14
ID : 16
Format : Timed Text
Codec ID : tx3g
Duration : 33 min 32 s
Bit rate mode : Variable
Bit rate : 70 b/s
Stream size : 17.2 KiB (0%)
Title : Hungarian
Language : Hungarian
Forced : No
Encoded date : UTC 2022-04-30 20:03:26
Tagged date : UTC 2022-04-30 20:03:30

Text #15
ID : 17
Format : Timed Text
Codec ID : tx3g
Duration : 33 min 32 s
Bit rate mode : Variable
Bit rate : 69 b/s
Stream size : 17.0 KiB (0%)
Title : Indonesian
Language : Indonesian
Forced : No
Encoded date : UTC 2022-04-30 20:03:26
Tagged date : UTC 2022-04-30 20:03:30

Text #16
ID : 18
Format : Timed Text
Codec ID : tx3g
Duration : 33 min 32 s
Bit rate mode : Variable
Bit rate : 71 b/s
Stream size : 17.6 KiB (0%)
Title : Italian
Language : Italian
Forced : No
Encoded date : UTC 2022-04-30 20:03:27
Tagged date : UTC 2022-04-30 20:03:30

Text #17
ID : 19
Format : Timed Text
Codec ID : tx3g
Duration : 33 min 32 s
Bit rate mode : Variable
Bit rate : 69 b/s
Stream size : 16.9 KiB (0%)
Title : Japanese
Language : Japanese
Forced : No
Encoded date : UTC 2022-04-30 20:03:27
Tagged date : UTC 2022-04-30 20:03:30

Text #18
ID : 20
Format : Timed Text
Codec ID : tx3g
Duration : 33 min 32 s
Bit rate mode : Variable
Bit rate : 90 b/s
Stream size : 22.1 KiB (0%)
Title : Korean
Language : Korean
Forced : No
Encoded date : UTC 2022-04-30 20:03:27
Tagged date : UTC 2022-04-30 20:03:30

Text #19
ID : 21
Format : Timed Text
Codec ID : tx3g
Duration : 33 min 32 s
Bit rate mode : Variable
Bit rate : 66 b/s
Stream size : 16.1 KiB (0%)
Title : Malay
Language : Malay
Forced : No
Encoded date : UTC 2022-04-30 20:03:27
Tagged date : UTC 2022-04-30 20:03:30

Text #20
ID : 22
Format : Timed Text
Codec ID : tx3g
Duration : 33 min 32 s
Bit rate mode : Variable
Bit rate : 64 b/s
Stream size : 15.6 KiB (0%)
Title : Norwegian
Language : Norwegian Bokmal
Forced : No
Encoded date : UTC 2022-04-30 20:03:27
Tagged date : UTC 2022-04-30 20:03:30

Text #21
ID : 23
Format : Timed Text
Codec ID : tx3g
Duration : 33 min 32 s
Bit rate mode : Variable
Bit rate : 65 b/s
Stream size : 16.0 KiB (0%)
Title : Polish
Language : Polish
Forced : No
Encoded date : UTC 2022-04-30 20:03:29
Tagged date : UTC 2022-04-30 20:03:30

Text #22
ID : 24
Format : Timed Text
Codec ID : tx3g
Duration : 33 min 32 s
Bit rate mode : Variable
Bit rate : 72 b/s
Stream size : 17.7 KiB (0%)
Title : Portuguese
Language : Portuguese
Forced : No
Encoded date : UTC 2022-04-30 20:03:29
Tagged date : UTC 2022-04-30 20:03:30

Text #23
ID : 25
Format : Timed Text
Codec ID : tx3g
Duration : 33 min 32 s
Bit rate mode : Variable
Bit rate : 64 b/s
Stream size : 15.7 KiB (0%)
Title : Portuguese
Language : Portuguese
Forced : No
Encoded date : UTC 2022-04-30 20:03:29
Tagged date : UTC 2022-04-30 20:03:30

Text #24
ID : 26
Format : Timed Text
Codec ID : tx3g
Duration : 33 min 32 s
Bit rate mode : Variable
Bit rate : 73 b/s
Stream size : 18.0 KiB (0%)
Title : Romanian
Language : Romanian
Forced : No
Encoded date : UTC 2022-04-30 20:03:29
Tagged date : UTC 2022-04-30 20:03:30

Text #25
ID : 27
Format : Timed Text
Codec ID : tx3g
Duration : 33 min 32 s
Bit rate mode : Variable
Bit rate : 106 b/s
Stream size : 26.1 KiB (0%)
Title : Russian
Language : Russian
Forced : No
Encoded date : UTC 2022-04-30 20:03:29
Tagged date : UTC 2022-04-30 20:03:30

Text #26
ID : 28
Format : Timed Text
Codec ID : tx3g
Duration : 33 min 32 s
Bit rate mode : Variable
Bit rate : 64 b/s
Stream size : 15.7 KiB (0%)
Title : Spanish-EU
Language : Spanish
Forced : No
Encoded date : UTC 2022-04-30 20:03:29
Tagged date : UTC 2022-04-30 20:03:30

Text #27
ID : 29
Format : Timed Text
Codec ID : tx3g
Duration : 33 min 32 s
Bit rate mode : Variable
Bit rate : 68 b/s
Stream size : 16.6 KiB (0%)
Title : Spanish-EU
Language : Spanish
Forced : No
Encoded date : UTC 2022-04-30 20:03:29
Tagged date : UTC 2022-04-30 20:03:30

Text #28
ID : 30
Format : Timed Text
Codec ID : tx3g
Duration : 33 min 32 s
Bit rate mode : Variable
Bit rate : 67 b/s
Stream size : 16.4 KiB (0%)
Title : Swedish
Language : Swedish
Forced : No
Encoded date : UTC 2022-04-30 20:03:29
Tagged date : UTC 2022-04-30 20:03:30

Text #29
ID : 31
Format : Timed Text
Codec ID : tx3g
Duration : 33 min 32 s
Bit rate mode : Variable
Bit rate : 180 b/s
Stream size : 44.1 KiB (0%)
Title : Thai
Language : Thai
Forced : No
Encoded date : UTC 2022-04-30 20:03:30
Tagged date : UTC 2022-04-30 20:03:30

Text #30
ID : 32
Format : Timed Text
Codec ID : tx3g
Duration : 33 min 32 s
Bit rate mode : Variable
Bit rate : 64 b/s
Stream size : 15.6 KiB (0%)
Title : Turkish
Language : Turkish
Forced : No
Encoded date : UTC 2022-04-30 20:03:30
Tagged date : UTC 2022-04-30 20:03:30

Text #31
ID : 33
Format : Timed Text
Codec ID : tx3g
Duration : 33 min 32 s
Bit rate mode : Variable
Bit rate : 91 b/s
Stream size : 22.3 KiB (0%)
Title : Vietnamese
Language : Vietnamese
Forced : No
Encoded date : UTC 2022-04-30 20:03:30
Tagged date : UTC 2022-04-30 20:03:30
下载地址:

游客,如果您要查看本帖隐藏内容请回复

游客,如果您要查看本帖隐藏内容请回复

游客,如果您要查看本帖隐藏内容请回复

游客,如果您要查看本帖隐藏内容请回复

游客,如果您要查看本帖隐藏内容请回复



.


上一篇:麻木不仁(内嵌简繁中字) (2019)/ 第一季全10集/4K高清版本下载
下一篇:找我经纪人/Ten.Percent(英版) (2022)/第二季全8集/4K高清版本下载
回复

使用道具 举报

1

主题

1346

帖子

4064

积分

4K家园VIP

Rank: 9Rank: 9Rank: 9

积分
4064
发表于 2022-5-1 21:04:53 来自手机 | 显示全部楼层
very good
回复 支持 反对

使用道具 举报

1

主题

1371

帖子

3997

积分

4K家园VIP

Rank: 9Rank: 9Rank: 9

积分
3997
发表于 2022-5-3 06:00:17 来自手机 | 显示全部楼层
前排顶,很好!
回复 支持 反对

使用道具 举报

1

主题

1429

帖子

4305

积分

4K家园VIP

Rank: 9Rank: 9Rank: 9

积分
4305
发表于 2022-5-4 04:29:13 来自手机 | 显示全部楼层
发发呆,回回帖,工作结束~
回复 支持 反对

使用道具 举报

0

主题

1365

帖子

4111

积分

4K家园VIP

Rank: 9Rank: 9Rank: 9

积分
4111
发表于 2022-5-5 12:46:38 来自手机 | 显示全部楼层
呵呵,低调,低调!
回复 支持 反对

使用道具 举报

3

主题

1429

帖子

4117

积分

4K家园VIP

Rank: 9Rank: 9Rank: 9

积分
4117
发表于 2022-5-11 03:30:35 | 显示全部楼层
没人回帖。。。我来个吧
回复 支持 反对

使用道具 举报

0

主题

1749

帖子

4799

积分

4K家园VIP

Rank: 9Rank: 9Rank: 9

积分
4799
发表于 2022-11-11 03:08:00 来自手机 | 显示全部楼层
支持支持再支持
回复 支持 反对

使用道具 举报

0

主题

1

帖子

6

积分

新手上路

Rank: 1

积分
6
发表于 2022-11-20 16:57:00 | 显示全部楼层
看完了第一季,很好看的片,第二季继续,哈哈
回复 支持 反对

使用道具 举报

您需要登录后才可以回帖 登录 | 立即注册

本版积分规则

精彩图文
Archiver|手机版|TAG|Sitemap|新帖|专题|联系我们:邮箱: 4kjia.com@gmail.com   

4k家园   ©2019