[4K电影] 黑色弥撒(内封简繁中字)/ Black Mass (2015) 4K高清版本下载

[复制链接]

1723

主题

1856

帖子

1万

积分

超级版主

Rank: 8Rank: 8

积分
14024
 楼主| 发表于 2022-5-2 10:58:48 | 显示全部楼层 |阅读模式
QQ图片20220502104918_副本.png

◎译  名 黑色弥撒/黑弥撒/黑势力(台)/极黑势力(港)
◎片  名 Black Mass
◎年  代 2015
◎产  地 美国
◎类  别 剧情/传记/犯罪
◎语  言 英语
◎上映日期 2015-09-04(威尼斯电影节)/2015-09-18(美国)
◎IMDb评分  6.9/10 from 177683 users
◎IMDb链接  https://www.imdb.com/title/tt1355683/
◎豆瓣评分 6.5/10 from 14847 users
◎豆瓣链接 https://movie.douban.com/subject/3432861/
◎导  演 斯科特·库珀 Scott Cooper
◎编  剧 马克·马洛克 Mark Mallouk
      杰斯·巴特沃斯 Jez Butterworth
      迪克·莱尔 Dick Lehr
      杰拉德·奥尼尔 Gerard O'Neill
◎主  演 约翰尼·德普 Johnny Depp
      乔尔·埃哲顿 Joel Edgerton
      本尼迪克特·康伯巴奇 Benedict Cumberbatch
      杰西·普莱蒙 Jesse Plemons
      凯文·贝肯 Kevin Bacon
      彼得·萨斯加德 Peter Sarsgaard
      达科塔·约翰逊 Dakota Johnson
      寇瑞·斯托尔 Corey Stoll
      W·厄尔·布朗 W. Earl Brown
      朱诺·坦普尔 Juno Temple
      亚当·斯科特 Adam Scott
      朱丽安妮·尼科尔森 Julianne Nicholson
      大卫·哈伯 David Harbour
      布拉德·卡特 Brad Carter
      詹姆斯·拉索 James Russo
      埃里卡·麦克德莫特 Erica McDermott
      杰瑞米·斯特朗 Jeremy Strong
      布雷顿·曼雷 Bretton Manley
      斯科特·安德森 Scott Anderson
      杰弗里·保罗·瓦伦蒂 JP Valenti
      拉里·尤登 Larry Eudene
      贝茨·怀尔德 Bates Wilder
      安东尼·莫利纳利 Anthony Molinari

◎简  介

  根据纪实文学《黑弥撒:FBI和爱尔兰黑帮不光彩合作的真实故事》改编。
  詹姆斯·巴尔杰是全球十大在逃通缉犯之一,他发迹于波士顿,获奥斯卡最佳影片的《无间道风云》中的黑帮大佬就有他的影子。巴尔杰建立的“冬日山岗帮”(Winter Hill Gang)是波士顿著名的黑帮组织,从贩卖毒品到倒卖军火无恶不作,另外他们和包括爱尔兰共和军在内的北美及欧洲许多主要的犯罪集团都有联系。


◎获奖情况

  第22届美国演员工会奖(2016)
  电影奖 最佳男主角(提名)

  第21届美国评论家选择电影奖(2016)
  最佳男主角(提名)
  最佳发型化妆(提名)

  第19届好莱坞电影奖(2015)
  年度剪辑
  年度突破男演员

Video
ID : 1
Format : HEVC
Format/Info : High Efficiency Video Coding
Format profile : Main 10@L5@High
Codec ID : V_MPEGH/ISO/HEVC
Duration : 2 h 2 min
Bit rate : 12.1 Mb/s
Width : 3 840 pixels
Height : 1 600 pixels
Display aspect ratio : 2.40:1
Frame rate mode : Constant
Frame rate : 23.976 (23976/1000) FPS
Color space : YUV
Chroma subsampling : 4:2:0
Bit depth : 10 bits
Bits/(Pixel*Frame) : 0.082
Stream size : 10.3 GiB (76%)
Default : Yes
Forced : No
Color range : Limited
Color primaries : BT.709
Transfer characteristics : BT.709
Matrix coefficients : BT.709

Audio #1
ID : 2
ID in the original source medium : 4352 (0x1100)
Format : DTS XLL
Format/Info : Digital Theater Systems
Commercial name : DTS-HD Master Audio
Codec ID : A_DTS
Duration : 2 h 2 min
Bit rate mode : Variable
Bit rate : 3 443 kb/s
Channel(s) : 6 channels
Channel layout : C L R Ls Rs LFE
Sampling rate : 48.0 kHz
Frame rate : 93.750 FPS (512 SPF)
Bit depth : 24 bits
Compression mode : Lossless
Delay relative to video : 3 ms
Stream size : 2.95 GiB (22%)
Title : DTS-HD MA 5.1
Language : English
Default : Yes
Forced : No
Original source medium : Blu-ray

Audio #2
ID : 3
Format : AC-3
Format/Info : Audio Coding 3
Commercial name : Dolby Digital
Codec ID : A_AC3
Duration : 2 h 2 min
Bit rate mode : Constant
Bit rate : 384 kb/s
Channel(s) : 6 channels
Channel layout : L R C LFE Ls Rs
Sampling rate : 48.0 kHz
Frame rate : 31.250 FPS (1536 SPF)
Compression mode : Lossy
Stream size : 337 MiB (2%)
Title : DD 5.1
Language : English
Service kind : Complete Main
Default : No
Forced : No

Text #1
ID : 4
Format : UTF-8
Codec ID : S_TEXT/UTF8
Codec ID/Info : UTF-8 Plain Text
Duration : 1 h 53 min
Bit rate : 92 b/s
Count of elements : 2118
Stream size : 76.8 KiB (0%)
Title : English CC
Language : English
Default : Yes
Forced : No

Text #2
ID : 5
Format : UTF-8
Codec ID : S_TEXT/UTF8
Codec ID/Info : UTF-8 Plain Text
Duration : 1 h 53 min
Bit rate : 93 b/s
Count of elements : 1711
Stream size : 78.2 KiB (0%)
Title : Arabic
Language : Arabic
Default : No
Forced : No

Text #3
ID : 6
Format : UTF-8
Codec ID : S_TEXT/UTF8
Codec ID/Info : UTF-8 Plain Text
Duration : 2 h 1 min
Bit rate : 102 b/s
Count of elements : 1705
Stream size : 91.1 KiB (0%)
Title : Bulgarian
Language : Bulgarian
Default : No
Forced : No

Text #4
ID : 7
Format : UTF-8
Codec ID : S_TEXT/UTF8
Codec ID/Info : UTF-8 Plain Text
Duration : 2 h 1 min
Bit rate : 56 b/s
Count of elements : 1638
Stream size : 49.9 KiB (0%)
Title : 中文(简体)
Language : 中文
Default : No
Forced : No


Text #5
ID : 8
Format : UTF-8
Codec ID : S_TEXT/UTF8
Codec ID/Info : UTF-8 Plain Text
Duration : 1 h 54 min
Bit rate : 60 b/s
Count of elements : 1642
Stream size : 50.3 KiB (0%)
Title : 中文(繁体)
Language : 中文
Default : No
Forced : No


Text #6
ID : 9
Format : UTF-8
Codec ID : S_TEXT/UTF8
Codec ID/Info : UTF-8 Plain Text
Duration : 2 h 1 min
Bit rate : 61 b/s
Count of elements : 1715
Stream size : 54.6 KiB (0%)
Title : Czech
Language : Czech
Default : No
Forced : No

Text #7
ID : 10
Format : UTF-8
Codec ID : S_TEXT/UTF8
Codec ID/Info : UTF-8 Plain Text
Duration : 1 h 57 min
Bit rate : 59 b/s
Count of elements : 1301
Stream size : 50.8 KiB (0%)
Title : Danish
Language : Danish
Default : No
Forced : No

Text #8
ID : 11
Format : UTF-8
Codec ID : S_TEXT/UTF8
Codec ID/Info : UTF-8 Plain Text
Duration : 1 h 54 min
Bit rate : 86 b/s
Count of elements : 1971
Stream size : 72.5 KiB (0%)
Title : German
Language : German
Default : No
Forced : No

Text #9
ID : 12
Format : UTF-8
Codec ID : S_TEXT/UTF8
Codec ID/Info : UTF-8 Plain Text
Duration : 2 h 1 min
Bit rate : 108 b/s
Count of elements : 1745
Stream size : 96.9 KiB (0%)
Title : Greek
Language : Greek
Default : No
Forced : No

Text #10
ID : 13
Format : UTF-8
Codec ID : S_TEXT/UTF8
Codec ID/Info : UTF-8 Plain Text
Duration : 2 h 1 min
Bit rate : 69 b/s
Count of elements : 1720
Stream size : 61.8 KiB (0%)
Title : Spanish Latin American
Language : Spanish
Default : No
Forced : No

Text #11
ID : 14
Format : UTF-8
Codec ID : S_TEXT/UTF8
Codec ID/Info : UTF-8 Plain Text
Duration : 1 h 53 min
Bit rate : 68 b/s
Count of elements : 1704
Stream size : 57.2 KiB (0%)
Title : Spanish European
Language : Spanish
Default : No
Forced : No

Text #12
ID : 15
Format : UTF-8
Codec ID : S_TEXT/UTF8
Codec ID/Info : UTF-8 Plain Text
Duration : 2 h 1 min
Bit rate : 49 b/s
Count of elements : 1779
Stream size : 44.4 KiB (0%)
Title : Estonian
Language : Estonian
Default : No
Forced : No

Text #13
ID : 16
Format : UTF-8
Codec ID : S_TEXT/UTF8
Codec ID/Info : UTF-8 Plain Text
Duration : 1 h 53 min
Bit rate : 52 b/s
Count of elements : 1362
Stream size : 43.7 KiB (0%)
Title : Finnish
Language : Finnish
Default : No
Forced : No

Text #14
ID : 17
Format : UTF-8
Codec ID : S_TEXT/UTF8
Codec ID/Info : UTF-8 Plain Text
Duration : 1 h 57 min
Bit rate : 61 b/s
Count of elements : 1691
Stream size : 53.1 KiB (0%)
Title : French European
Language : French
Default : No
Forced : No

Text #15
ID : 18
Format : UTF-8
Codec ID : S_TEXT/UTF8
Codec ID/Info : UTF-8 Plain Text
Duration : 2 h 1 min
Bit rate : 101 b/s
Count of elements : 1715
Stream size : 90.0 KiB (0%)
Title : Hebrew
Language : Hebrew
Default : No
Forced : No

Text #16
ID : 19
Format : UTF-8
Codec ID : S_TEXT/UTF8
Codec ID/Info : UTF-8 Plain Text
Duration : 2 h 1 min
Bit rate : 62 b/s
Count of elements : 1391
Stream size : 56.0 KiB (0%)
Title : Hungarian
Language : Hungarian
Default : No
Forced : No

Text #17
ID : 20
Format : UTF-8
Codec ID : S_TEXT/UTF8
Codec ID/Info : UTF-8 Plain Text
Duration : 1 h 54 min
Bit rate : 66 b/s
Count of elements : 1957
Stream size : 55.5 KiB (0%)
Title : Italian
Language : Italian
Default : No
Forced : No

Text #18
ID : 21
Format : UTF-8
Codec ID : S_TEXT/UTF8
Codec ID/Info : UTF-8 Plain Text
Duration : 1 h 54 min
Bit rate : 61 b/s
Count of elements : 1616
Stream size : 51.3 KiB (0%)
Title : Japanese
Language : Japanese
Default : No
Forced : No

Text #19
ID : 22
Format : UTF-8
Codec ID : S_TEXT/UTF8
Codec ID/Info : UTF-8 Plain Text
Duration : 1 h 53 min
Bit rate : 75 b/s
Count of elements : 1906
Stream size : 63.4 KiB (0%)
Title : Korean
Language : Korean
Default : No
Forced : No

Text #20
ID : 23
Format : UTF-8
Codec ID : S_TEXT/UTF8
Codec ID/Info : UTF-8 Plain Text
Duration : 2 h 1 min
Bit rate : 62 b/s
Count of elements : 1715
Stream size : 55.4 KiB (0%)
Title : Lithuanian
Language : Lithuanian
Default : No
Forced : No

Text #21
ID : 24
Format : UTF-8
Codec ID : S_TEXT/UTF8
Codec ID/Info : UTF-8 Plain Text
Duration : 2 h 1 min
Bit rate : 60 b/s
Count of elements : 1782
Stream size : 54.1 KiB (0%)
Title : Latvian
Language : Latvian
Default : No
Forced : No

Text #22
ID : 25
Format : UTF-8
Codec ID : S_TEXT/UTF8
Codec ID/Info : UTF-8 Plain Text
Duration : 1 h 53 min
Bit rate : 58 b/s
Count of elements : 1338
Stream size : 49.0 KiB (0%)
Title : Dutch
Language : Dutch
Default : No
Forced : No

Text #23
ID : 26
Format : UTF-8
Codec ID : S_TEXT/UTF8
Codec ID/Info : UTF-8 Plain Text
Duration : 1 h 54 min
Bit rate : 62 b/s
Count of elements : 1292
Stream size : 52.2 KiB (0%)
Title : Norwegian
Language : Norwegian
Default : No
Forced : No

Text #24
ID : 27
Format : UTF-8
Codec ID : S_TEXT/UTF8
Codec ID/Info : UTF-8 Plain Text
Duration : 2 h 1 min
Bit rate : 54 b/s
Count of elements : 1684
Stream size : 48.7 KiB (0%)
Title : Polish
Language : Polish
Default : No
Forced : No

Text #25
ID : 28
Format : UTF-8
Codec ID : S_TEXT/UTF8
Codec ID/Info : UTF-8 Plain Text
Duration : 2 h 1 min
Bit rate : 68 b/s
Count of elements : 1731
Stream size : 61.4 KiB (0%)
Title : Portuguese Brazilian
Language : Portuguese
Default : No
Forced : No

Text #26
ID : 29
Format : UTF-8
Codec ID : S_TEXT/UTF8
Codec ID/Info : UTF-8 Plain Text
Duration : 2 h 1 min
Bit rate : 67 b/s
Count of elements : 1641
Stream size : 60.1 KiB (0%)
Title : Portuguese European
Language : Portuguese
Default : No
Forced : No

Text #27
ID : 30
Format : UTF-8
Codec ID : S_TEXT/UTF8
Codec ID/Info : UTF-8 Plain Text
Duration : 2 h 1 min
Bit rate : 95 b/s
Count of elements : 1789
Stream size : 85.0 KiB (0%)
Title : Russian
Language : Russian
Default : No
Forced : No

Text #28
ID : 31
Format : UTF-8
Codec ID : S_TEXT/UTF8
Codec ID/Info : UTF-8 Plain Text
Duration : 2 h 1 min
Bit rate : 50 b/s
Count of elements : 1189
Stream size : 45.1 KiB (0%)
Title : Slovenian
Language : Slovenian
Default : No
Forced : No

Text #29
ID : 32
Format : UTF-8
Codec ID : S_TEXT/UTF8
Codec ID/Info : UTF-8 Plain Text
Duration : 1 h 54 min
Bit rate : 63 b/s
Count of elements : 1373
Stream size : 52.9 KiB (0%)
Title : Swedish
Language : Swedish
Default : No
Forced : No

Text #30
ID : 33
Format : UTF-8
Codec ID : S_TEXT/UTF8
Codec ID/Info : UTF-8 Plain Text
Duration : 1 h 54 min
Bit rate : 159 b/s
Count of elements : 1892
Stream size : 133 KiB (0%)
Title : Thai
Language : Thai
Default : No
Forced : No

Text #31
ID : 34
Format : UTF-8
Codec ID : S_TEXT/UTF8
Codec ID/Info : UTF-8 Plain Text
Duration : 2 h 1 min
Bit rate : 66 b/s
Count of elements : 1716
Stream size : 59.2 KiB (0%)
Title : Turkish
Language : Turkish
Default : No
Forced : No

Text #32
ID : 35
Format : UTF-8
Codec ID : S_TEXT/UTF8
Codec ID/Info : UTF-8 Plain Text
Duration : 1 h 54 min
Bit rate : 57 b/s
Count of elements : 1906
Stream size : 48.0 KiB (0%)
Title : 中文(粤语)
Language : 中午
Default : No
Forced : No


Menu
00:00:00.000 : en:Chapter 01
00:09:44.000 : en:Chapter 02
00:18:27.000 : en:Chapter 03
00:28:49.000 : en:Chapter 04
00:41:49.000 : en:Chapter 05
00:51:58.000 : en:Chapter 06
00:59:19.000 : en:Chapter 07
01:09:17.000 : en:Chapter 08
01:19:53.000 : en:Chapter 09
01:28:47.000 : en:Chapter 10
01:39:44.000 : en:Chapter 11
01:52:18.000 : en:Chapter 12
01:55:11.000 : en:Chapter 13


资源速度为零或资源敏感被和谐时,推荐使用qBittorrent等下载软件,有条件的推荐115更好的下载软件!

下载地址


游客,如果您要查看本帖隐藏内容请回复

游客,如果您要查看本帖隐藏内容请回复

游客,如果您要查看本帖隐藏内容请回复



.

上一篇:比佛利山超级警探3 / Beverly.Hills.Cop.III (1994) 4K高清版本下载
下一篇:光盲青春 (简繁中字)/ Blinded by the Light (2019) 4K高清版本下载
回复

使用道具 举报

1

主题

1381

帖子

3949

积分

4K家园VIP

Rank: 9Rank: 9Rank: 9

积分
3949
发表于 2022-5-2 10:58:57 | 显示全部楼层
没明白
回复 支持 反对

使用道具 举报

2

主题

1395

帖子

4035

积分

4K家园VIP

Rank: 9Rank: 9Rank: 9

积分
4035
发表于 2022-5-7 20:58:36 | 显示全部楼层
顶起出售广告位
回复 支持 反对

使用道具 举报

2

主题

1624

帖子

4466

积分

4K家园VIP

Rank: 9Rank: 9Rank: 9

积分
4466
发表于 7 天前 | 显示全部楼层
鼎力支持!!
回复 支持 反对

使用道具 举报

1

主题

1379

帖子

3979

积分

4K家园VIP

Rank: 9Rank: 9Rank: 9

积分
3979
发表于 昨天 16:57 | 显示全部楼层
不错 支持一个了
回复 支持 反对

使用道具 举报

您需要登录后才可以回帖 登录 | 立即注册

本版积分规则

精彩图文
Archiver|手机版|TAG|Sitemap|新帖|专题|联系我们:邮箱: 4kjia.com@gmail.com   

4k家园   ©2019