[4K电影] 光盲青春 (简繁中字)/ Blinded by the Light (2019) 4K高清版本下载

[复制链接]

1701

主题

1834

帖子

1万

积分

超级版主

Rank: 8Rank: 8

积分
13887
 楼主| 发表于 2022-5-2 11:13:15 | 显示全部楼层 |阅读模式

QQ图片20220502110815_副本.png

◎译  名 光盲青春 / 摇滚青春颂(港) / 炫目之光(台)
◎片  名 Blinded by the Light
◎年  代 2019
◎产  地 英国
◎类  别 剧情 / 喜剧 / 歌舞 / 传记
◎语  言 英语
◎上映日期 2019-01-27(圣丹斯电影节) / 2019-08-09(英国)
◎IMDb评分  6.9/10 from 24547 users
◎IMDb链接  http://www.imdb.com/title/tt8266310
◎豆瓣评分 7.0/10 from 136 users
◎豆瓣链接 https://movie.douban.com/subject/30200414/
◎片  长 114分钟(圣丹斯电影节)
◎导  演 顾伦德·查达哈 Gurinder Chadha
◎编  剧 顾伦德·查达哈 Gurinder Chadha / 保罗·梅达·贝哲斯 Paul Mayeda Berges / 萨弗拉齐·曼苏 Sarfraz Manzoor
◎主  演 海莉·阿特维尔 Hayley Atwell
       维韦克·卡拉 Viveik Kalra
       莎莉·菲利普斯 Sally Phillips
       艾伦·菲格拉 Aaron Phagura
       迪恩·查尔斯·查普曼 Dean-Charles Chapman
       内尔·威廉姆斯 Nell Williams
       罗伯·布莱顿 Rob Brydon
       文森特·阿德里安 Vincent Andriano
       保罗·布莱克维尔 Paul Blackwell
       约诺·戴维斯 Jonno Davies
       奥利维亚·波莉 Olivia Poulet
       乔·惠特利 Jo Wheatley
       贾格·帕特尔 Jag Patel
       史蒂芬·萨姆森 Stephen Samson
       阿图尔·夏尔马 Atul Sharma
       阿什克·阿赫塔尔 Asheq Akhtar



◎简  介

  讲述的是1987年在英格兰一个小城镇里一个十几岁的移民男孩通过男歌手布鲁斯·斯普林斯汀的音乐找到理想、信念和自由的故事。

Video
ID : 1
Format : HEVC
Format/Info : High Efficiency Video Coding
Format profile : Main 10@L5@High
HDR format : Dolby Vision, Version 1.0, dvhe.05.06, BL+RPU
Codec ID : V_MPEGH/ISO/HEVC
Duration : 1 h 57 min
Bit rate : 14.2 Mb/s
Width : 3 840 pixels
Height : 1 608 pixels
Display aspect ratio : 2.40:1
Frame rate mode : Constant
Frame rate : 23.976 (24000/1001) FPS
Color space : YUV
Chroma subsampling : 4:2:0
Bit depth : 10 bits
Bits/(Pixel*Frame) : 0.096
Stream size : 11.6 GiB (61%)
Default : Yes
Forced : No

Audio #1
ID : 2
Format : MLP FBA 16-ch
Format/Info : Meridian Lossless Packing FBA with 16-channel presentation
Commercial name : Dolby TrueHD with Dolby Atmos
Codec ID : A_TRUEHD
Duration : 1 h 57 min
Bit rate mode : Variable
Bit rate : 3 705 kb/s
Maximum bit rate : 5 883 kb/s
Channel(s) : 8 channels
Channel layout : L R C LFE Ls Rs Lb Rb
Sampling rate : 48.0 kHz
Frame rate : 1 200.000 FPS (40 SPF)
Compression mode : Lossless
Stream size : 3.05 GiB (16%)
Title : TrueHD 7.1 Atmos
Language : English
Default : Yes
Forced : No
Number of dynamic objects : 15
Bed channel count : 1 channel
Bed channel configuration : LFE

Audio #2
ID : 3
Format : DTS XLL
Format/Info : Digital Theater Systems
Commercial name : DTS-HD Master Audio
Codec ID : A_DTS
Duration : 1 h 57 min
Bit rate mode : Variable
Bit rate : 4 599 kb/s
Channel(s) : 8 channels
Channel layout : C L R LFE Lb Rb Lss Rss
Sampling rate : 48.0 kHz
Frame rate : 93.750 FPS (512 SPF)
Bit depth : 24 bits
Compression mode : Lossless
Delay relative to video : 4 ms
Stream size : 3.78 GiB (20%)
Title : DTS-HD MA 7.1
Language : English
Default : No
Forced : No

Audio #3
ID : 4
Format : AC-3
Format/Info : Audio Coding 3
Commercial name : Dolby Digital
Format settings : Dolby Surround EX
Codec ID : A_AC3
Duration : 1 h 57 min
Bit rate mode : Constant
Bit rate : 448 kb/s
Channel(s) : 6 channels
Channel layout : L R C LFE Ls Rs
Sampling rate : 48.0 kHz
Frame rate : 31.250 FPS (1536 SPF)
Compression mode : Lossy
Delay relative to video : 14 ms
Stream size : 377 MiB (2%)
Title : DD 5.1
Language : English
Service kind : Complete Main
Default : No
Forced : No

Audio #4
ID : 5
Format : AC-3
Format/Info : Audio Coding 3
Commercial name : Dolby Digital
Codec ID : A_AC3
Duration : 1 h 57 min
Bit rate mode : Constant
Bit rate : 384 kb/s
Channel(s) : 6 channels
Channel layout : L R C LFE Ls Rs
Sampling rate : 48.0 kHz
Frame rate : 31.250 FPS (1536 SPF)
Compression mode : Lossy
Stream size : 323 MiB (2%)
Language : English
Service kind : Complete Main
Default : Yes
Forced : No

Text #1
ID : 6
Format : UTF-8
Codec ID : S_TEXT/UTF8
Codec ID/Info : UTF-8 Plain Text
Duration : 1 h 50 min
Bit rate : 83 b/s
Count of elements : 1928
Stream size : 67.2 KiB (0%)
Title : English CC
Language : English
Default : Yes
Forced : No

Text #2
ID : 7
Format : UTF-8
Codec ID : S_TEXT/UTF8
Codec ID/Info : UTF-8 Plain Text
Duration : 1 h 56 min
Bit rate : 75 b/s
Count of elements : 1394
Stream size : 64.5 KiB (0%)
Title : Arabic
Language : Arabic
Default : No
Forced : No

Text #3
ID : 8
Format : UTF-8
Codec ID : S_TEXT/UTF8
Codec ID/Info : UTF-8 Plain Text
Duration : 1 h 56 min
Bit rate : 71 b/s
Count of elements : 1475
Stream size : 61.0 KiB (0%)
Title : Bulgarian
Language : Bulgarian
Default : No
Forced : No

Text #4
ID : 9
Format : UTF-8
Codec ID : S_TEXT/UTF8
Codec ID/Info : UTF-8 Plain Text
Duration : 1 h 56 min
Bit rate : 46 b/s
Count of elements : 1398
Stream size : 40.2 KiB (0%)
Title : 中文(简体)
Language : 中文
Default : No
Forced : No

Text #5
ID : 10
Format : UTF-8
Codec ID : S_TEXT/UTF8
Codec ID/Info : UTF-8 Plain Text
Duration : 1 h 51 min
Bit rate : 47 b/s
Count of elements : 1301
Stream size : 39.0 KiB (0%)
Title : 中文(繁体)
Language : 中文
Default : No
Forced : No

Text #6
ID : 11
Format : UTF-8
Codec ID : S_TEXT/UTF8
Codec ID/Info : UTF-8 Plain Text
Duration : 1 h 56 min
Bit rate : 51 b/s
Count of elements : 1477
Stream size : 44.1 KiB (0%)
Title : Czech
Language : Czech
Default : No
Forced : No

Text #7
ID : 12
Format : UTF-8
Codec ID : S_TEXT/UTF8
Codec ID/Info : UTF-8 Plain Text
Duration : 1 h 51 min
Bit rate : 57 b/s
Count of elements : 1179
Stream size : 47.1 KiB (0%)
Title : German
Language : German
Default : No
Forced : No

Text #8
ID : 13
Format : UTF-8
Codec ID : S_TEXT/UTF8
Codec ID/Info : UTF-8 Plain Text
Duration : 1 h 56 min
Bit rate : 89 b/s
Count of elements : 1352
Stream size : 76.5 KiB (0%)
Title : Greek
Language : Greek
Default : No
Forced : No

Text #9
ID : 14
Format : UTF-8
Codec ID : S_TEXT/UTF8
Codec ID/Info : UTF-8 Plain Text
Duration : 1 h 51 min
Bit rate : 58 b/s
Count of elements : 1347
Stream size : 48.0 KiB (0%)
Title : Spanish Latin American
Language : Spanish
Default : No
Forced : No

Text #10
ID : 15
Format : UTF-8
Codec ID : S_TEXT/UTF8
Codec ID/Info : UTF-8 Plain Text
Duration : 1 h 56 min
Bit rate : 52 b/s
Count of elements : 1331
Stream size : 44.9 KiB (0%)
Title : Spanish European
Language : Spanish
Default : No
Forced : No

Text #11
ID : 16
Format : UTF-8
Codec ID : S_TEXT/UTF8
Codec ID/Info : UTF-8 Plain Text
Duration : 1 h 56 min
Bit rate : 44 b/s
Count of elements : 1476
Stream size : 38.5 KiB (0%)
Title : Estonian
Language : Estonian
Default : No
Forced : No

Text #12
ID : 17
Format : UTF-8
Codec ID : S_TEXT/UTF8
Codec ID/Info : UTF-8 Plain Text
Duration : 1 h 56 min
Bit rate : 49 b/s
Count of elements : 1495
Stream size : 42.4 KiB (0%)
Title : French European
Language : French
Default : No
Forced : No

Text #13
ID : 18
Format : UTF-8
Codec ID : S_TEXT/UTF8
Codec ID/Info : UTF-8 Plain Text
Duration : 1 h 56 min
Bit rate : 71 b/s
Count of elements : 1356
Stream size : 61.4 KiB (0%)
Title : Hebrew
Language : Hebrew
Default : No
Forced : No

Text #14
ID : 19
Format : UTF-8
Codec ID : S_TEXT/UTF8
Codec ID/Info : UTF-8 Plain Text
Duration : 1 h 56 min
Bit rate : 43 b/s
Count of elements : 1464
Stream size : 36.9 KiB (0%)
Title : Hungarian
Language : Hungarian
Default : No
Forced : No

Text #15
ID : 20
Format : UTF-8
Codec ID : S_TEXT/UTF8
Codec ID/Info : UTF-8 Plain Text
Duration : 1 h 56 min
Bit rate : 56 b/s
Count of elements : 1326
Stream size : 48.0 KiB (0%)
Title : Italian
Language : Italian
Default : No
Forced : No

Text #16
ID : 21
Format : UTF-8
Codec ID : S_TEXT/UTF8
Codec ID/Info : UTF-8 Plain Text
Duration : 1 h 56 min
Bit rate : 58 b/s
Count of elements : 1478
Stream size : 49.8 KiB (0%)
Title : Korean
Language : Korean
Default : No
Forced : No

Text #17
ID : 22
Format : UTF-8
Codec ID : S_TEXT/UTF8
Codec ID/Info : UTF-8 Plain Text
Duration : 1 h 56 min
Bit rate : 49 b/s
Count of elements : 1477
Stream size : 42.2 KiB (0%)
Title : Latvian
Language : Latvian
Default : No
Forced : No

Text #18
ID : 23
Format : UTF-8
Codec ID : S_TEXT/UTF8
Codec ID/Info : UTF-8 Plain Text
Duration : 1 h 56 min
Bit rate : 45 b/s
Count of elements : 1167
Stream size : 39.1 KiB (0%)
Title : Dutch
Language : Dutch
Default : No
Forced : No

Text #19
ID : 24
Format : UTF-8
Codec ID : S_TEXT/UTF8
Codec ID/Info : UTF-8 Plain Text
Duration : 1 h 56 min
Bit rate : 47 b/s
Count of elements : 1462
Stream size : 40.6 KiB (0%)
Title : Polish
Language : Polish
Default : No
Forced : No

Text #20
ID : 25
Format : UTF-8
Codec ID : S_TEXT/UTF8
Codec ID/Info : UTF-8 Plain Text
Duration : 1 h 56 min
Bit rate : 52 b/s
Count of elements : 1340
Stream size : 44.9 KiB (0%)
Title : Portuguese Brazilian
Language : Portuguese
Default : No
Forced : No

Text #21
ID : 26
Format : UTF-8
Codec ID : S_TEXT/UTF8
Codec ID/Info : UTF-8 Plain Text
Duration : 1 h 56 min
Bit rate : 51 b/s
Count of elements : 1325
Stream size : 44.5 KiB (0%)
Title : Portuguese European
Language : Portuguese
Default : No
Forced : No

Text #22
ID : 27
Format : UTF-8
Codec ID : S_TEXT/UTF8
Codec ID/Info : UTF-8 Plain Text
Duration : 1 h 56 min
Bit rate : 91 b/s
Count of elements : 1464
Stream size : 78.3 KiB (0%)
Title : Russian
Language : Russian
Default : No
Forced : No

Text #23
ID : 28
Format : UTF-8
Codec ID : S_TEXT/UTF8
Codec ID/Info : UTF-8 Plain Text
Duration : 1 h 56 min
Bit rate : 42 b/s
Count of elements : 1477
Stream size : 36.0 KiB (0%)
Title : Slovenian
Language : Slovenian
Default : No
Forced : No

Text #24
ID : 29
Format : UTF-8
Codec ID : S_TEXT/UTF8
Codec ID/Info : UTF-8 Plain Text
Duration : 1 h 56 min
Bit rate : 117 b/s
Count of elements : 1478
Stream size : 101 KiB (0%)
Title : Thai
Language : Thai
Default : No
Forced : No

Text #25
ID : 30
Format : UTF-8
Codec ID : S_TEXT/UTF8
Codec ID/Info : UTF-8 Plain Text
Duration : 1 h 56 min
Bit rate : 53 b/s
Count of elements : 1340
Stream size : 45.8 KiB (0%)
Title : Turkish
Language : Turkish
Default : No
Forced : No

Text #26
ID : 31
Format : UTF-8
Codec ID : S_TEXT/UTF8
Codec ID/Info : UTF-8 Plain Text
Duration : 1 h 51 min
Bit rate : 49 b/s
Count of elements : 1383
Stream size : 40.3 KiB (0%)
Title : 中文(粤语)
Language : 中文
Default : No
Forced : No


Menu
00:00:00.000 : en:Chapter 01
00:11:09.000 : en:Chapter 02
00:20:03.000 : en:Chapter 03
00:30:12.000 : en:Chapter 04
00:39:49.000 : en:Chapter 05
00:48:51.000 : en:Chapter 06
00:58:26.000 : en:Chapter 07
01:08:38.000 : en:Chapter 08
01:18:59.250 : en:Chapter 09
01:28:14.100 : en:Chapter 10
01:40:04.250 : en:Chapter 11
01:51:35.000 : en:Chapter 12


资源速度为零或资源敏感被和谐时,推荐使用qBittorrent等下载软件,有条件的推荐115更好的下载软件!

下载地址


游客,如果您要查看本帖隐藏内容请回复

游客,如果您要查看本帖隐藏内容请回复

以下为无中文字幕版本
游客,如果您要查看本帖隐藏内容请回复

游客,如果您要查看本帖隐藏内容请回复



.

上一篇:黑色弥撒(内封简繁中字)/ Black Mass (2015) 4K高清版本下载
下一篇:大巧局 / Family Plot (1976) 4K高清版本下载
回复

使用道具 举报

1

主题

1415

帖子

4089

积分

4K家园VIP

Rank: 9Rank: 9Rank: 9

积分
4089
发表于 2022-5-2 11:13:24 | 显示全部楼层
高手啊
回复 支持 反对

使用道具 举报

0

主题

8229

帖子

1万

积分

4K家园VIP

Rank: 9Rank: 9Rank: 9

积分
18809
发表于 2022-5-2 11:40:16 | 显示全部楼层
太好啦&萬分感謝版主的無私發佈分享%
回复 支持 反对

使用道具 举报

0

主题

2

帖子

12

积分

新手上路

Rank: 1

积分
12
发表于 2022-5-3 22:33:22 来自手机 | 显示全部楼层
感谢分享
回复

使用道具 举报

40

主题

1493

帖子

4295

积分

4K家园VIP

Rank: 9Rank: 9Rank: 9

积分
4295
发表于 2022-5-6 23:33:25 | 显示全部楼层
LZ是天才,坚定完毕
回复 支持 反对

使用道具 举报

1

主题

1236

帖子

3726

积分

4K家园VIP

Rank: 9Rank: 9Rank: 9

积分
3726
发表于 2022-5-8 01:27:10 来自手机 | 显示全部楼层
LZ敢整点更有创意的不?兄弟们等着围观捏~
回复 支持 反对

使用道具 举报

201

主题

1736

帖子

4770

积分

4K家园VIP

Rank: 9Rank: 9Rank: 9

积分
4770
发表于 2022-5-8 06:41:01 | 显示全部楼层
前排支持下了哦~
回复 支持 反对

使用道具 举报

56

主题

1543

帖子

4513

积分

4K家园VIP

Rank: 9Rank: 9Rank: 9

积分
4513
发表于 2022-5-8 08:46:26 | 显示全部楼层
边撸边过
回复 支持 反对

使用道具 举报

您需要登录后才可以回帖 登录 | 立即注册

本版积分规则

精彩图文
Archiver|手机版|TAG|Sitemap|新帖|专题|联系我们:邮箱: 4kjia.com@gmail.com   

4k家园   ©2019