[4K电影] 大巧局 / Family Plot (1976) 4K高清版本下载

[复制链接]

主题

帖子

0

积分

超级版主

Rank: 8Rank: 8

积分
0
 楼主| 发表于 2022-5-2 11:19:27 | 显示全部楼层 |阅读模式
本帖最后由 最爱4K哟 于 2022-5-2 13:35 编辑

QQ图片20220502113902_副本.png

◎译  名 大巧局/奇案/家庭阴谋
◎片  名 Family Plot
◎年  代 1976
◎产  地 美国
◎类  别 喜剧 / 惊悚 / 犯罪
◎语  言 英语
◎上映日期 1976-04-09
◎IMDb评分  6.8/10 from 22769 users
◎IMDb链接  https://www.imdb.com/title/tt0074512/
◎豆瓣评分 7.1/10 from 2180 users
◎豆瓣链接 https://movie.douban.com/subject/1298371/
◎片  长 121 分钟
◎导  演 阿尔弗雷德·希区柯克 Alfred Hitchcock
◎编  剧 恩斯特·莱赫曼 Ernest Lehman / 维克托·坎宁 Victor Canning
◎主  演 凯伦·布莱克 Karen Black
       布鲁斯·邓恩 Bruce Dern
       芭芭拉·哈里斯 Barbara Harris
       威廉姆·德瓦内 William Devane
       阿尔弗雷德·希区柯克 Alfred Hitchcock
       Martin West
       查尔斯·泰纳 Charles Tyner
       John Steadman
       玛吉·雷德蒙德 Marge Redmond
       弗兰·瑞恩 Fran Ryan
       凯瑟琳·内斯比特 Cathleen Nesbitt
       Alexander Lockwood
       尼可拉斯·科拉山多 Nicholas Colasanto
       威廉·普林斯 William Prince
       凯瑟琳·海蒙德 Katherine Helmond
         伊迪丝·阿特沃特 Edith Atwater
       Dee Carroll
       Elisabeth Brooks
       阿兰·弗吉 Alan Fudge
       理查德·黑尔 Richard Hale
       John Lehne
       沃伦·肯梅灵 Warren J. Kemmerling
       埃德·劳特尔 Ed Lauter
       Louise Lorimer


◎简  介

  茱莉亚(Cathleen Nesbitt 饰)年事已高,家财万贯,可是没有子嗣,也就没有名正言顺的继承者,为此,她找到了女巫师布兰奇(芭芭拉·哈里斯 Barbara Harris 饰)。茱莉亚告诉布兰奇,她的妹妹曾有一个私生子,被她送给别人抚养,如今,她想找到这个可怜的孩子,让他继承家产。

  就这样,布兰奇和情人乔治(布鲁斯·邓恩 Bruce Dern 饰)一起展开了调查,得知领养茱莉亚外甥的那个家庭全员葬身于大火之中,而放火的不是别人,正是他们想要找的那个人——爱德华(威廉姆·德瓦内 William Devane 饰)。如今的爱德华改名换姓,成为了一位珠宝商,狡猾的他害怕当年的罪行曝光,于是雇佣了当年帮他脱罪的马罗尼(艾德·劳特 Ed Lauter 饰),让他将布兰奇一行人杀死。

Video
ID : 1
Format : HEVC
Format/Info : High Efficiency Video Coding
Format profile : Main 10@L5@High
HDR format : SMPTE ST 2086, HDR10 compatible
Codec ID : V_MPEGH/ISO/HEVC
Duration : 2 h 0 min
Bit rate : 24.8 Mb/s
Width : 3 840 pixels
Height : 2 076 pixels
Display aspect ratio : 1.85:1
Frame rate mode : Constant
Frame rate : 23.976 FPS
Color space : YUV
Chroma subsampling : 4:2:0 (Type 2)
Bit depth : 10 bits
Bits/(Pixel*Frame) : 0.130
Stream size : 20.8 GiB (92%)
Default : Yes
Forced : No
Color range : Limited
Color primaries : BT.2020
Transfer characteristics : PQ
Matrix coefficients : BT.2020 non-constant
Mastering display color primaries : Display P3
Mastering display luminance : min: 0.0050 cd/m2, max: 1000 cd/m2
Maximum Content Light Level : 939 cd/m2
Maximum Frame-Average Light Level : 205 cd/m2

Audio #1
ID : 2
ID in the original source medium : 4353 (0x1101)
Format : DTS XLL
Format/Info : Digital Theater Systems
Commercial name : DTS-HD Master Audio
Codec ID : A_DTS
Duration : 2 h 0 min
Bit rate mode : Variable
Bit rate : 1 770 kb/s
Channel(s) : 2 channels
Channel layout : L R
Sampling rate : 48.0 kHz
Frame rate : 93.750 FPS (512 SPF)
Bit depth : 24 bits
Compression mode : Lossless
Delay relative to video : 1 s 0 ms
Stream size : 1.48 GiB (7%)
Title : DTS-HD MA 2.0
Language : English
Default : Yes
Forced : No
Original source medium : Blu-ray

Audio #2
ID : 3
Format : AAC LC
Format/Info : Advanced Audio Codec Low Complexity
Codec ID : A_AAC-2
Duration : 2 h 0 min
Bit rate : 120 kb/s
Channel(s) : 2 channels
Channel layout : L R
Sampling rate : 48.0 kHz
Frame rate : 46.875 FPS (1024 SPF)
Compression mode : Lossy
Stream size : 103 MiB (0%)
Title : AAC2.0
Language : English
Default : No
Forced : No

Text #1
ID : 4
Format : UTF-8
Codec ID : S_TEXT/UTF8
Codec ID/Info : UTF-8 Plain Text
Duration : 1 h 58 min
Bit rate : 67 b/s
Count of elements : 1367
Stream size : 58.4 KiB (0%)
Title : English CC
Language : English
Default : No
Forced : No

Text #2
ID : 5
ID in the original source medium : 4608 (0x1200)
Format : PGS
Muxing mode : zlib
Codec ID : S_HDMV/PGS
Codec ID/Info : Picture based subtitle format used on BDs/HD-DVDs
Duration : 1 h 58 min
Bit rate : 19.6 kb/s
Count of elements : 2408
Stream size : 16.6 MiB (0%)
Title : Japanese
Language : Japanese
Default : No
Forced : No
Original source medium : Blu-ray

Text #3
ID : 6
ID in the original source medium : 4609 (0x1201)
Format : PGS
Muxing mode : zlib
Codec ID : S_HDMV/PGS
Codec ID/Info : Picture based subtitle format used on BDs/HD-DVDs
Duration : 1 h 58 min
Bit rate : 41.4 kb/s
Count of elements : 3084
Stream size : 35.1 MiB (0%)
Title : English
Language : English
Default : No
Forced : No
Original source medium : Blu-ray

Text #4
ID : 7
ID in the original source medium : 4610 (0x1202)
Format : PGS
Muxing mode : zlib
Codec ID : S_HDMV/PGS
Codec ID/Info : Picture based subtitle format used on BDs/HD-DVDs
Duration : 1 h 59 min
Bit rate : 33.1 kb/s
Count of elements : 2442
Stream size : 28.2 MiB (0%)
Title : French
Language : French
Default : No
Forced : No
Original source medium : Blu-ray

Text #5
ID : 8
ID in the original source medium : 4611 (0x1203)
Format : PGS
Muxing mode : zlib
Codec ID : S_HDMV/PGS
Codec ID/Info : Picture based subtitle format used on BDs/HD-DVDs
Duration : 1 h 59 min
Bit rate : 33.2 kb/s
Count of elements : 2442
Stream size : 28.3 MiB (0%)
Title : Italian
Language : Italian
Default : No
Forced : No
Original source medium : Blu-ray

Text #6
ID : 9
ID in the original source medium : 4612 (0x1204)
Format : PGS
Muxing mode : zlib
Codec ID : S_HDMV/PGS
Codec ID/Info : Picture based subtitle format used on BDs/HD-DVDs
Duration : 1 h 59 min
Bit rate : 37.3 kb/s
Count of elements : 2440
Stream size : 31.8 MiB (0%)
Title : German
Language : German
Default : No
Forced : No
Original source medium : Blu-ray

Text #7
ID : 10
ID in the original source medium : 4613 (0x1205)
Format : PGS
Muxing mode : zlib
Codec ID : S_HDMV/PGS
Codec ID/Info : Picture based subtitle format used on BDs/HD-DVDs
Duration : 1 h 59 min
Bit rate : 35.4 kb/s
Count of elements : 2448
Stream size : 30.3 MiB (0%)
Title : Castilian
Language : Spanish
Default : No
Forced : No
Original source medium : Blu-ray

Text #8
ID : 11
ID in the original source medium : 4614 (0x1206)
Format : PGS
Muxing mode : zlib
Codec ID : S_HDMV/PGS
Codec ID/Info : Picture based subtitle format used on BDs/HD-DVDs
Duration : 1 h 59 min
Bit rate : 34.7 kb/s
Count of elements : 2448
Stream size : 29.6 MiB (0%)
Title : Portuguese
Language : Portuguese
Default : No
Forced : No
Original source medium : Blu-ray

Text #9
ID : 12
ID in the original source medium : 4615 (0x1207)
Format : PGS
Muxing mode : zlib
Codec ID : S_HDMV/PGS
Codec ID/Info : Picture based subtitle format used on BDs/HD-DVDs
Duration : 1 h 58 min
Bit rate : 36.4 kb/s
Count of elements : 2691
Stream size : 30.8 MiB (0%)
Title : Castilian
Language : Spanish
Default : No
Forced : No
Original source medium : Blu-ray

Text #10
ID : 13
ID in the original source medium : 4616 (0x1208)
Format : PGS
Muxing mode : zlib
Codec ID : S_HDMV/PGS
Codec ID/Info : Picture based subtitle format used on BDs/HD-DVDs
Duration : 1 h 59 min
Bit rate : 33.8 kb/s
Count of elements : 2456
Stream size : 28.8 MiB (0%)
Title : Russian
Language : Russian
Default : No
Forced : No
Original source medium : Blu-ray

Text #11
ID : 14
ID in the original source medium : 4617 (0x1209)
Format : PGS
Muxing mode : zlib
Codec ID : S_HDMV/PGS
Codec ID/Info : Picture based subtitle format used on BDs/HD-DVDs
Duration : 1 h 59 min
Bit rate : 33.5 kb/s
Count of elements : 2438
Stream size : 28.6 MiB (0%)
Title : Dutch
Language : Dutch
Default : No
Forced : No
Original source medium : Blu-ray

Text #12
ID : 15
ID in the original source medium : 4618 (0x120A)
Format : PGS
Muxing mode : zlib
Codec ID : S_HDMV/PGS
Codec ID/Info : Picture based subtitle format used on BDs/HD-DVDs
Duration : 1 h 59 min
Bit rate : 35.3 kb/s
Count of elements : 2442
Stream size : 30.1 MiB (0%)
Title : Danish
Language : Danish
Default : No
Forced : No
Original source medium : Blu-ray

Text #13
ID : 16
ID in the original source medium : 4619 (0x120B)
Format : PGS
Muxing mode : zlib
Codec ID : S_HDMV/PGS
Codec ID/Info : Picture based subtitle format used on BDs/HD-DVDs
Duration : 1 h 59 min
Bit rate : 32.6 kb/s
Count of elements : 2438
Stream size : 27.9 MiB (0%)
Title : Finnish
Language : Finnish
Default : No
Forced : No
Original source medium : Blu-ray

Text #14
ID : 17
ID in the original source medium : 4620 (0x120C)
Format : PGS
Muxing mode : zlib
Codec ID : S_HDMV/PGS
Codec ID/Info : Picture based subtitle format used on BDs/HD-DVDs
Duration : 1 h 59 min
Bit rate : 32.1 kb/s
Count of elements : 2442
Stream size : 27.4 MiB (0%)
Title : Norwegian
Language : Norwegian
Default : No
Forced : No
Original source medium : Blu-ray

Text #15
ID : 18
ID in the original source medium : 4621 (0x120D)
Format : PGS
Muxing mode : zlib
Codec ID : S_HDMV/PGS
Codec ID/Info : Picture based subtitle format used on BDs/HD-DVDs
Duration : 1 h 59 min
Bit rate : 33.3 kb/s
Count of elements : 2442
Stream size : 28.5 MiB (0%)
Title : Swedish
Language : Swedish
Default : No
Forced : No
Original source medium : Blu-ray

Text #16
ID : 19
ID in the original source medium : 4622 (0x120E)
Format : PGS
Muxing mode : zlib
Codec ID : S_HDMV/PGS
Codec ID/Info : Picture based subtitle format used on BDs/HD-DVDs
Duration : 1 h 4 min
Bit rate : 376 b/s
Count of elements : 22
Stream size : 177 KiB (0%)
Title : Japanese
Language : Japanese
Default : No
Forced : No
Original source medium : Blu-ray

Text #17
ID : 20
ID in the original source medium : 4623 (0x120F)
Format : PGS
Muxing mode : zlib
Codec ID : S_HDMV/PGS
Codec ID/Info : Picture based subtitle format used on BDs/HD-DVDs
Duration : 1 h 22 min
Bit rate : 426 b/s
Count of elements : 28
Stream size : 258 KiB (0%)
Title : French
Language : French
Default : No
Forced : No
Original source medium : Blu-ray

Text #18
ID : 21
ID in the original source medium : 4624 (0x1210)
Format : PGS
Muxing mode : zlib
Codec ID : S_HDMV/PGS
Codec ID/Info : Picture based subtitle format used on BDs/HD-DVDs
Duration : 1 h 22 min
Bit rate : 450 b/s
Count of elements : 28
Stream size : 273 KiB (0%)
Title : Italian
Language : Italian
Default : No
Forced : No
Original source medium : Blu-ray

Text #19
ID : 22
ID in the original source medium : 4625 (0x1211)
Format : PGS
Muxing mode : zlib
Codec ID : S_HDMV/PGS
Codec ID/Info : Picture based subtitle format used on BDs/HD-DVDs
Duration : 1 h 22 min
Bit rate : 397 b/s
Count of elements : 26
Stream size : 240 KiB (0%)
Title : German
Language : German
Default : No
Forced : No
Original source medium : Blu-ray

Text #20
ID : 23
ID in the original source medium : 4626 (0x1212)
Format : PGS
Muxing mode : zlib
Codec ID : S_HDMV/PGS
Codec ID/Info : Picture based subtitle format used on BDs/HD-DVDs
Duration : 1 h 22 min
Bit rate : 404 b/s
Count of elements : 28
Stream size : 245 KiB (0%)
Title : Spanish
Language : Spanish
Default : No
Forced : No
Original source medium : Blu-ray

Text #21
ID : 24
ID in the original source medium : 4627 (0x1213)
Format : PGS
Muxing mode : zlib
Codec ID : S_HDMV/PGS
Codec ID/Info : Picture based subtitle format used on BDs/HD-DVDs
Duration : 1 h 22 min
Bit rate : 319 b/s
Count of elements : 20
Stream size : 194 KiB (0%)
Title : Portuguese
Language : Portuguese
Default : No
Forced : No
Original source medium : Blu-ray

Text #22
ID : 25
ID in the original source medium : 4628 (0x1214)
Format : PGS
Muxing mode : zlib
Codec ID : S_HDMV/PGS
Codec ID/Info : Picture based subtitle format used on BDs/HD-DVDs
Duration : 1 h 2 min
Bit rate : 487 b/s
Count of elements : 24
Stream size : 223 KiB (0%)
Title : Spanish
Language : Spanish
Default : No
Forced : No
Original source medium : Blu-ray

Text #23
ID : 26
ID in the original source medium : 4629 (0x1215)
Format : PGS
Muxing mode : zlib
Codec ID : S_HDMV/PGS
Codec ID/Info : Picture based subtitle format used on BDs/HD-DVDs
Duration : 1 h 24 min
Bit rate : 363 b/s
Count of elements : 24
Stream size : 225 KiB (0%)
Title : Russian
Language : Russian
Default : No
Forced : No
Original source medium : Blu-ray

Menu
00:00:00.000 : en:The Rainbirds’ Secret
00:10:02.000 : en:Blanche & George
00:14:05.000 : en:The Silent Blonde
00:19:59.000 : en:The Kidnapping Couple
00:30:24.000 : en:The Chauffeur’s Daughter
00:33:38.000 : en:Grave Matters
00:41:32.000 : en:Where’s Eddie?
00:46:31.000 : en:Mr. Adamson
00:57:27.000 : en:A Marvelous Clue
01:01:05.000 : en:Taking the Bishop
01:07:12.000 : en:Maloney’s Deal
01:14:30.000 : en:No Brakes
01:29:13.000 : en:Blanche Takes Over
01:37:41.000 : en:The Unwelcome Guest
01:45:27.000 : enooking for Blanche
01:53:53.000 : en:Adamson at Bay
01:56:53.000 : en:A Real Psychic
01:59:10.000 : en:End Titles

资源速度为零或资源敏感被和谐时,推荐使用qBittorrent等下载软件,有条件的推荐115更好的下载软件!

下载地址


游客,如果您要查看本帖隐藏内容请回复

游客,如果您要查看本帖隐藏内容请回复




上一篇:光盲青春 (简繁中字)/ Blinded by the Light (2019) 4K高清版本下载
下一篇:焦点(内封简繁中字)/ Focus (2015)4K高清版本下载
回复

使用道具 举报

2

主题

1390

帖子

3984

积分

4K家园VIP

Rank: 9Rank: 9Rank: 9

积分
3984
发表于 2022-5-2 11:19:32 | 显示全部楼层
LZ敢整点更有创意的不?兄弟们等着围观捏~
回复 支持 反对

使用道具 举报

主题

帖子

0

积分

4K家园VIP

Rank: 9Rank: 9Rank: 9

积分
0
发表于 2022-5-2 11:40:38 | 显示全部楼层
太好啦&萬分感謝版主的無私發佈分享%
回复 支持 反对

使用道具 举报

主题

帖子

0

积分

新手上路

Rank: 1

积分
0
发表于 2022-5-2 12:31:22 | 显示全部楼层
谢谢楼主分享
回复 支持 反对

使用道具 举报

1

主题

1435

帖子

4141

积分

4K家园VIP

Rank: 9Rank: 9Rank: 9

积分
4141
发表于 2022-5-2 22:12:28 | 显示全部楼层
LZ是天才,坚定完毕
回复 支持 反对

使用道具 举报

主题

帖子

6

积分

新手上路

Rank: 1

积分
6
发表于 2022-5-3 15:29:28 | 显示全部楼层

hottest nude models

hottest nude models
回复 支持 反对

使用道具 举报

主题

帖子

6

积分

新手上路

Rank: 1

积分
6
发表于 2022-5-5 01:49:39 | 显示全部楼层

webcam nude free

webcam nude free
回复 支持 反对

使用道具 举报

39

主题

1493

帖子

4245

积分

4K家园VIP

Rank: 9Rank: 9Rank: 9

积分
4245
发表于 2022-5-9 00:35:25 来自手机 | 显示全部楼层
在撸一遍。。。
回复 支持 反对

使用道具 举报

3

主题

1423

帖子

4287

积分

4K家园VIP

Rank: 9Rank: 9Rank: 9

积分
4287
发表于 2022-5-18 06:44:28 | 显示全部楼层
顶起顶起顶起
回复 支持 反对

使用道具 举报

53

主题

1586

帖子

4598

积分

4K家园VIP

Rank: 9Rank: 9Rank: 9

积分
4598
发表于 2022-5-21 05:45:33 | 显示全部楼层
very good
回复 支持 反对

使用道具 举报

您需要登录后才可以回帖 登录 | 立即注册

本版积分规则

精彩图文
Archiver|手机版|TAG|Sitemap|新帖|专题|联系我们:邮箱: 4kjia.com@gmail.com   

4k家园   ©2019