[4K电影] 焦点(内封简繁中字)/ Focus (2015)4K高清版本下载

[复制链接]

主题

帖子

0

积分

超级版主

Rank: 8Rank: 8

积分
0
 楼主| 发表于 2022-5-2 13:02:13 | 显示全部楼层 |阅读模式
本帖最后由 最爱4K哟 于 2022-5-2 13:34 编辑

QQ图片20220502114044_副本.png

◎译  名 焦点/决胜焦点(台)/千骗万化 (港)

◎片  名 Focus

◎年  代 2015
◎产  地 美国
◎类  别 剧情/喜剧/犯罪
◎语  言 英语
◎上映日期 2015-02-27(美国)
◎IMDb评分  6.6/10 from 241333 users
◎IMDb链接  https://www.imdb.com/title/tt2381941/
◎豆瓣评分 6.9/10 from 42595 users
◎豆瓣链接 https://movie.douban.com/subject/20277433/
◎导  演 格伦·费卡拉 Glenn Ficarra / 约翰·里夸 John Requa
◎编  剧 格伦·费卡拉 Glenn Ficarra / 约翰·里夸 John Requa
◎主  演 威尔·史密斯 Will Smith
      玛格特·罗比 Margot Robbie
      阿德里安·马丁斯 Adrian Martinez
      杰拉尔德·麦克雷尼 Gerald McRaney
      罗德里戈·桑托罗 Rodrigo Santoro
      黄荣亮 B.D. Wong
      布雷南·布朗 Brennan Brown
      罗伯特·泰勒 Robert Taylor
      格里夫·弗斯特 Griff Furst
      斯蒂芬妮·奥诺雷 Stephanie Honoré
      多米尼克·福穆萨 Dominic Fumusa
      Steve Kim Steve Kim
      唐·耶索 Don Yesso
      胡安·米努欣 Juan Minujín
      艾伦·杰伊·罗姆 Aaron Jay Rome
      乔恩·阿兹 Jon Eyez
      克雷·钱柏林 Clay Chamberlin
      比利·斯洛特 Billy Slaughter
      托马斯·弗兰西斯·墨菲 Thomas Francis Murphy
      Brett Baker Brett Baker
      Dario Dukah Dario Dukah
      Apollo Robbins Apollo Robbins
      迈克尔·达尔当 Michael Dardant
      Patrick O'Hara Patrick O'Hara
      乔·克里斯特 Joe Chrest
      劳拉·弗兰纳里 Laura Flannery
      胡安·贾斯帕 Juan Gaspard
      斯塔莱特·米亚里奥尼 Starlette Miariaunii


◎简  介


  尼基(威尔·史密斯 Will Smith 饰)是一位经验非常丰富的诈骗犯,和他搭档的是名叫杰斯(玛歌特·罗比 Margot Robbie 饰)的女扒手,两人在专业知识上互通有无,彼此之间结下了深厚的友谊。当他们之间的感情逐渐突破了单纯和合作关系后,尼基为了保全自己的事业,毅然决然的甩掉了杰斯。

  一晃眼多年过去,尼基和杰斯在布宜诺斯艾利斯重逢了。原来,杰斯在尼基离开她之后并没有一蹶不振,而是在行当里不断的精进打磨,时至今日,她已经是一位技巧非常高超的女飞贼了。尼基原本的精心策划的行骗计划,因为杰斯的出现而变得险象环生。

Video
ID : 1
Format : HEVC
Format/Info : High Efficiency Video Coding
Format profile : Main 10@L5@High
HDR format : Dolby Vision, Version 1.0, dvhe.05.06, BL+RPU
Codec ID : V_MPEGH/ISO/HEVC
Duration : 1 h 44 min
Bit rate : 24.5 Mb/s
Width : 3 840 pixels
Height : 2 160 pixels
Display aspect ratio : 16:9
Frame rate mode : Constant
Frame rate : 23.976 (24000/1001) FPS
Color space : YUV
Chroma subsampling : 4:2:0
Bit depth : 10 bits
Bits/(Pixel*Frame) : 0.123
Stream size : 17.9 GiB (83%)
Default : Yes
Forced : No

Audio #1
ID : 2
Format : DTS XLL
Format/Info : Digital Theater Systems
Commercial name : DTS-HD Master Audio
Codec ID : A_DTS
Duration : 1 h 44 min
Bit rate mode : Variable
Bit rate : 4 523 kb/s
Channel(s) : 8 channels
Channel layout : C L R LFE Lb Rb Lss Rss
Sampling rate : 48.0 kHz
Frame rate : 93.750 FPS (512 SPF)
Bit depth : 24 bits
Compression mode : Lossless
Delay relative to video : 3 ms
Stream size : 3.31 GiB (15%)
Title : DTS-HD MA 7.1
Language : English
Default : Yes
Forced : No

Audio #2
ID : 3
Format : AC-3
Format/Info : Audio Coding 3
Commercial name : Dolby Digital
Codec ID : A_AC3
Duration : 1 h 44 min
Bit rate mode : Constant
Bit rate : 384 kb/s
Channel(s) : 6 channels
Channel layout : L R C LFE Ls Rs
Sampling rate : 48.0 kHz
Frame rate : 31.250 FPS (1536 SPF)
Compression mode : Lossy
Stream size : 287 MiB (1%)
Language : English
Service kind : Complete Main
Default : Yes
Forced : No

Text #1
ID : 4
Format : UTF-8
Codec ID : S_TEXT/UTF8
Codec ID/Info : UTF-8 Plain Text
Duration : 1 h 44 min
Bit rate : 78 b/s
Count of elements : 2209
Stream size : 59.8 KiB (0%)
Title : English CC
Language : English
Default : Yes
Forced : No

Text #2
ID : 5
Format : UTF-8
Codec ID : S_TEXT/UTF8
Codec ID/Info : UTF-8 Plain Text
Duration : 1 h 37 min
Bit rate : 77 b/s
Count of elements : 1530
Stream size : 55.8 KiB (0%)
Title : Arabic
Language : Arabic
Default : No
Forced : No

Text #3
ID : 6
Format : UTF-8
Codec ID : S_TEXT/UTF8
Codec ID/Info : UTF-8 Plain Text
Duration : 1 h 38 min
Bit rate : 89 b/s
Count of elements : 1382
Stream size : 64.8 KiB (0%)
Title : Bulgarian
Language : Bulgarian
Default : No
Forced : No

Text #4
ID : 7
Format : UTF-8
Codec ID : S_TEXT/UTF8
Codec ID/Info : UTF-8 Plain Text
Duration : 1 h 38 min
Bit rate : 64 b/s
Count of elements : 1536
Stream size : 46.4 KiB (0%)
Title : 中文(简体)
Language : 中文
Default : No
Forced : No

Text #5
ID : 8
Format : UTF-8
Codec ID : S_TEXT/UTF8
Codec ID/Info : UTF-8 Plain Text
Duration : 1 h 38 min
Bit rate : 49 b/s
Count of elements : 1442
Stream size : 35.9 KiB (0%)
Title : 中文(繁体)
Language : 中文
Default : No
Forced : No

Text #6
ID : 9
Format : UTF-8
Codec ID : S_TEXT/UTF8
Codec ID/Info : UTF-8 Plain Text
Duration : 1 h 37 min
Bit rate : 60 b/s
Count of elements : 1509
Stream size : 43.3 KiB (0%)
Title : Czech
Language : Czech
Default : No
Forced : No

Text #7
ID : 10
Format : UTF-8
Codec ID : S_TEXT/UTF8
Codec ID/Info : UTF-8 Plain Text
Duration : 1 h 37 min
Bit rate : 56 b/s
Count of elements : 1099
Stream size : 40.4 KiB (0%)
Title : Danish
Language : Danish
Default : No
Forced : No

Text #8
ID : 11
Format : UTF-8
Codec ID : S_TEXT/UTF8
Codec ID/Info : UTF-8 Plain Text
Duration : 1 h 37 min
Bit rate : 76 b/s
Count of elements : 1494
Stream size : 54.8 KiB (0%)
Title : German
Language : German
Default : No
Forced : No

Text #9
ID : 12
Format : UTF-8
Codec ID : S_TEXT/UTF8
Codec ID/Info : UTF-8 Plain Text
Duration : 1 h 37 min
Bit rate : 96 b/s
Count of elements : 1477
Stream size : 68.9 KiB (0%)
Title : Greek
Language : Greek
Default : No
Forced : No

Text #10
ID : 13
Format : UTF-8
Codec ID : S_TEXT/UTF8
Codec ID/Info : UTF-8 Plain Text
Duration : 1 h 38 min
Bit rate : 60 b/s
Count of elements : 1529
Stream size : 43.8 KiB (0%)
Title : Spanish Latin American
Language : Spanish
Default : No
Forced : No

Text #11
ID : 14
Format : UTF-8
Codec ID : S_TEXT/UTF8
Codec ID/Info : UTF-8 Plain Text
Duration : 1 h 37 min
Bit rate : 56 b/s
Count of elements : 1483
Stream size : 40.9 KiB (0%)
Title : Spanish European
Language : Spanish
Default : No
Forced : No

Text #12
ID : 15
Format : UTF-8
Codec ID : S_TEXT/UTF8
Codec ID/Info : UTF-8 Plain Text
Duration : 1 h 38 min
Bit rate : 46 b/s
Count of elements : 1529
Stream size : 33.6 KiB (0%)
Title : Estonian
Language : Estonian
Default : No
Forced : No

Text #13
ID : 16
Format : UTF-8
Codec ID : S_TEXT/UTF8
Codec ID/Info : UTF-8 Plain Text
Duration : 1 h 37 min
Bit rate : 57 b/s
Count of elements : 1378
Stream size : 41.0 KiB (0%)
Title : Finnish
Language : Finnish
Default : No
Forced : No

Text #14
ID : 17
Format : UTF-8
Codec ID : S_TEXT/UTF8
Codec ID/Info : UTF-8 Plain Text
Duration : 1 h 38 min
Bit rate : 51 b/s
Count of elements : 1355
Stream size : 37.0 KiB (0%)
Title : French Canadian
Language : French
Default : No
Forced : No

Text #15
ID : 18
Format : UTF-8
Codec ID : S_TEXT/UTF8
Codec ID/Info : UTF-8 Plain Text
Duration : 1 h 38 min
Bit rate : 85 b/s
Count of elements : 1519
Stream size : 61.7 KiB (0%)
Title : Hebrew
Language : Hebrew
Default : No
Forced : No

Text #16
ID : 19
Format : UTF-8
Codec ID : S_TEXT/UTF8
Codec ID/Info : UTF-8 Plain Text
Duration : 1 h 38 min
Bit rate : 64 b/s
Count of elements : 1496
Stream size : 46.5 KiB (0%)
Title : Hungarian
Language : Hungarian
Default : No
Forced : No

Text #17
ID : 20
Format : UTF-8
Codec ID : S_TEXT/UTF8
Codec ID/Info : UTF-8 Plain Text
Duration : 1 h 37 min
Bit rate : 66 b/s
Count of elements : 1555
Stream size : 48.1 KiB (0%)
Title : Indonesian
Language : Indonesian
Default : No
Forced : No

Text #18
ID : 21
Format : UTF-8
Codec ID : S_TEXT/UTF8
Codec ID/Info : UTF-8 Plain Text
Duration : 1 h 38 min
Bit rate : 57 b/s
Count of elements : 1479
Stream size : 41.9 KiB (0%)
Title : Italian
Language : Italian
Default : No
Forced : No

Text #19
ID : 22
Format : UTF-8
Codec ID : S_TEXT/UTF8
Codec ID/Info : UTF-8 Plain Text
Duration : 1 h 38 min
Bit rate : 44 b/s
Count of elements : 1324
Stream size : 31.7 KiB (0%)
Title : Japanese
Language : Japanese
Default : No
Forced : No

Text #20
ID : 23
Format : UTF-8
Codec ID : S_TEXT/UTF8
Codec ID/Info : UTF-8 Plain Text
Duration : 1 h 38 min
Bit rate : 58 b/s
Count of elements : 1473
Stream size : 42.7 KiB (0%)
Title : Korean
Language : Korean
Default : No
Forced : No

Text #21
ID : 24
Format : UTF-8
Codec ID : S_TEXT/UTF8
Codec ID/Info : UTF-8 Plain Text
Duration : 1 h 38 min
Bit rate : 57 b/s
Count of elements : 1537
Stream size : 41.9 KiB (0%)
Title : Lithuanian
Language : Lithuanian
Default : No
Forced : No

Text #22
ID : 25
Format : UTF-8
Codec ID : S_TEXT/UTF8
Codec ID/Info : UTF-8 Plain Text
Duration : 1 h 38 min
Bit rate : 53 b/s
Count of elements : 1532
Stream size : 39.1 KiB (0%)
Title : Latvian
Language : Latvian
Default : No
Forced : No

Text #23
ID : 26
Format : UTF-8
Codec ID : S_TEXT/UTF8
Codec ID/Info : UTF-8 Plain Text
Duration : 1 h 37 min
Bit rate : 49 b/s
Count of elements : 1131
Stream size : 35.4 KiB (0%)
Title : Dutch
Language : Dutch
Default : No
Forced : No

Text #24
ID : 27
Format : UTF-8
Codec ID : S_TEXT/UTF8
Codec ID/Info : UTF-8 Plain Text
Duration : 1 h 37 min
Bit rate : 56 b/s
Count of elements : 1223
Stream size : 40.3 KiB (0%)
Title : Norwegian
Language : Norwegian
Default : No
Forced : No

Text #25
ID : 28
Format : UTF-8
Codec ID : S_TEXT/UTF8
Codec ID/Info : UTF-8 Plain Text
Duration : 1 h 37 min
Bit rate : 51 b/s
Count of elements : 1450
Stream size : 37.3 KiB (0%)
Title : Polish
Language : Polish
Default : No
Forced : No

Text #26
ID : 29
Format : UTF-8
Codec ID : S_TEXT/UTF8
Codec ID/Info : UTF-8 Plain Text
Duration : 1 h 38 min
Bit rate : 58 b/s
Count of elements : 1493
Stream size : 42.2 KiB (0%)
Title : Portuguese Brazilian
Language : Portuguese
Default : No
Forced : No

Text #27
ID : 30
Format : UTF-8
Codec ID : S_TEXT/UTF8
Codec ID/Info : UTF-8 Plain Text
Duration : 1 h 37 min
Bit rate : 59 b/s
Count of elements : 1406
Stream size : 42.4 KiB (0%)
Title : Portuguese European
Language : Portuguese
Default : No
Forced : No

Text #28
ID : 31
Format : UTF-8
Codec ID : S_TEXT/UTF8
Codec ID/Info : UTF-8 Plain Text
Duration : 1 h 38 min
Bit rate : 59 b/s
Count of elements : 1330
Stream size : 42.9 KiB (0%)
Title : Romanian
Language : Romanian
Default : No
Forced : No

Text #29
ID : 32
Format : UTF-8
Codec ID : S_TEXT/UTF8
Codec ID/Info : UTF-8 Plain Text
Duration : 1 h 38 min
Bit rate : 107 b/s
Count of elements : 1510
Stream size : 77.8 KiB (0%)
Title : Russian
Language : Russian
Default : No
Forced : No

Text #30
ID : 33
Format : UTF-8
Codec ID : S_TEXT/UTF8
Codec ID/Info : UTF-8 Plain Text
Duration : 1 h 38 min
Bit rate : 45 b/s
Count of elements : 989
Stream size : 32.9 KiB (0%)
Title : Slovenian
Language : Slovenian
Default : No
Forced : No

Text #31
ID : 34
Format : UTF-8
Codec ID : S_TEXT/UTF8
Codec ID/Info : UTF-8 Plain Text
Duration : 1 h 37 min
Bit rate : 57 b/s
Count of elements : 1072
Stream size : 41.6 KiB (0%)
Title : Swedish
Language : Swedish
Default : No
Forced : No

Text #32
ID : 35
Format : UTF-8
Codec ID : S_TEXT/UTF8
Codec ID/Info : UTF-8 Plain Text
Duration : 1 h 38 min
Bit rate : 125 b/s
Count of elements : 1498
Stream size : 90.9 KiB (0%)
Title : Thai
Language : Thai
Default : No
Forced : No

Text #33
ID : 36
Format : UTF-8
Codec ID : S_TEXT/UTF8
Codec ID/Info : UTF-8 Plain Text
Duration : 1 h 38 min
Bit rate : 42 b/s
Count of elements : 1501
Stream size : 30.7 KiB (0%)
Title : 中文(粤语)
Language : Chinese
Default : No
Forced : No


Menu
00:00:00.000 : en:Chapter 01
00:09:16.000 : en:Chapter 02
00:18:53.000 : en:Chapter 03
00:30:21.000 : en:Chapter 04
00:40:54.000 : en:Chapter 05
00:49:14.000 : en:Chapter 06
01:00:08.000 : en:Chapter 07
01:11:01.000 : en:Chapter 08
01:20:25.000 : en:Chapter 09
01:28:32.000 : en:Chapter 10
01:39:17.000 : en:Chapter 11

资源速度为零或资源敏感被和谐时,推荐使用qBittorrent等下载软件,有条件的推荐115更好的下载软件!

下载地址

游客,如果您要查看本帖隐藏内容请回复

游客,如果您要查看本帖隐藏内容请回复

游客,如果您要查看本帖隐藏内容请回复

游客,如果您要查看本帖隐藏内容请回复





上一篇:大巧局 / Family Plot (1976) 4K高清版本下载
下一篇:雨果(内封简繁中字)/ Hugo (2011) 4K高清版本下载
回复

使用道具 举报

2

主题

1701

帖子

4645

积分

4K家园VIP

Rank: 9Rank: 9Rank: 9

积分
4645
发表于 2022-5-2 13:02:17 | 显示全部楼层
支持下楼主,顶一个
回复 支持 反对

使用道具 举报

38

主题

1538

帖子

4432

积分

4K家园VIP

Rank: 9Rank: 9Rank: 9

积分
4432
发表于 2022-5-2 22:36:10 | 显示全部楼层
我只是路过,不发表意见
回复 支持 反对

使用道具 举报

主题

帖子

0

积分

4K家园VIP

Rank: 9Rank: 9Rank: 9

积分
0
发表于 2022-5-3 11:22:28 | 显示全部楼层
应该好看的电影,谢谢分享
回复 支持 反对

使用道具 举报

3

主题

1351

帖子

4075

积分

4K家园VIP

Rank: 9Rank: 9Rank: 9

积分
4075
发表于 2022-5-3 12:35:43 | 显示全部楼层
4K家园不错,希望这种资源越多越好
回复 支持 反对

使用道具 举报

39

主题

1525

帖子

4371

积分

4K家园VIP

Rank: 9Rank: 9Rank: 9

积分
4371
发表于 2022-5-4 20:11:53 | 显示全部楼层
楼下的接上
回复 支持 反对

使用道具 举报

51

主题

1568

帖子

4524

积分

4K家园VIP

Rank: 9Rank: 9Rank: 9

积分
4524
发表于 2022-5-6 05:48:18 来自手机 | 显示全部楼层
我也顶起出售广告位
回复 支持 反对

使用道具 举报

主题

帖子

351

积分

新手上路

Rank: 1

积分
351
发表于 2022-10-7 23:56:16 | 显示全部楼层
谢谢分享
回复

使用道具 举报

您需要登录后才可以回帖 登录 | 立即注册

本版积分规则

精彩图文
Archiver|手机版|TAG|Sitemap|新帖|专题|联系我们:邮箱: 4kjia.com@gmail.com   

4k家园   ©2019