[4K电影] 黑夜造访 / It Comes at Night (2017) 4K高清版本下载

[复制链接]

主题

帖子

0

积分

超级版主

Rank: 8Rank: 8

积分
0
 楼主| 发表于 2022-5-2 13:33:28 | 显示全部楼层 |阅读模式

QQ图片20220502132937_副本.png

◎译  名 黑夜造访/它在黑夜到访(台)
◎片  名 It Comes at Night
◎年  代 2017
◎产  地 美国
◎类  别 悬疑/恐怖
◎语  言 英语
◎上映日期 2017-04-29(Overlook电影节)/2017-06-09(美国)
◎IMDb评分  [size=10.6667px]6.2/10 from 91753 users
◎IMDb链接  http://www.imdb.com/title/tt4695012/
◎豆瓣评分 6.0/10 from 4233 users
◎豆瓣链接 https://movie.douban.com/subject/26815381/
◎片  长 91分钟
◎导  演 特里·爱德华·沙尔茨 Trey Edward Shults
◎主  演 乔尔·埃哲顿 Joel Edgerton
      克里斯托弗·阿波特 Christopher Abbott
      卡门·艾乔戈 Carmen Ejogo
      丽莉·克亚芙 Riley Keough
      小凯文·哈里森 Kelvin Harrison Jr.
      格里芬·罗伯特·福克纳 Griffin Robert Faulkner
      大卫·彭德尔顿 David Pendleton
      米奇 Mikey
      蔡斯·乔利埃特 Chase Joliet
      米克·奥罗克 Mick O'Rourke


◎简  介


  故事发生在末日,病毒肆虐,凡是被感染的人都将被焚化,保罗一家人小心翼翼生活在森林里,突然有一天一个不速之客的造访,让他们的生活天翻地覆....

       
Video
ID : 1
Format : HEVC
Format/Info : High Efficiency Video Coding
Format profile : Main 10@L5@Main
HDR format : Dolby Vision, Version 1.0, dvhe.05.06, BL+RPU
Codec ID : V_MPEGH/ISO/HEVC
Duration : 1 h 31 min
Bit rate : 15.0 Mb/s
Width : 3 840 pixels
Height : 2 160 pixels
Display aspect ratio : 16:9
Frame rate mode : Constant
Frame rate : 23.976 (24000/1001) FPS
Color space : YUV
Chroma subsampling : 4:2:0
Bit depth : 10 bits
Bits/(Pixel*Frame) : 0.075
Stream size : 9.57 GiB (80%)
Writing library : x265 3.4hy:[Linux][GCC 7.5.0][64 bit] 10bit
Encoding settings : cpuid=1111039 / frame-threads=6 / no-wpp / no-pmode / no-pme / no-psnr / no-ssim / log-level=2 / input-csp=1 / input-res=3840x2160 / interlace=0 / total-frames=0 / level-idc=0 / high-tier=1 / uhd-bd=0 / ref=4 / no-allow-non-conformance / repeat-headers / annexb / aud / hrd / info / hash=0 / no-temporal-layers / no-open-gop / min-keyint=48 / keyint=48 / gop-lookahead=0 / bframes=4 / b-adapt=2 / b-pyramid / bframe-bias=0 / rc-lookahead=48 / lookahead-slices=4 / scenecut=0 / hist-scenecut=0 / radl=0 / no-splice / no-intra-refresh / ctu=64 / min-cu-size=8 / rect / no-amp / max-tu-size=32 / tu-inter-depth=1 / tu-intra-depth=1 / limit-tu=0 / rdoq-level=2 / dynamic-rd=0.00 / no-ssim-rd / signhide / no-tskip / nr-intra=100 / nr-inter=400 / no-constrained-intra / strong-intra-smoothing / max-merge=3 / limit-refs=3 / limit-modes / me=3 / subme=3 / merange=57 / temporal-mvp / no-frame-dup / no-hme / weightp / no-weightb / no-analyze-src-pics / deblock=0:0 / sao / no-sao-non-deblock / rd=4 / selective-sao=4 / no-early-skip / rskip / no-fast-intra / no-tskip-fast / no-cu-lossless / no-b-intra / no-splitrd-skip / rdpenalty=0 / psy-rd=0.00 / psy-rdoq=1.00 / no-rd-refine / no-lossless / cbqpoffs=0 / crqpoffs=3 / rc=abr / bitrate=15000 / qcomp=0.60 / qpstep=4 / stats-write=0 / stats-read=2 / cplxblur=20.0 / qblur=0.5 / vbv-maxrate=18000 / vbv-bufsize=12000 / vbv-init=0.6 / vbv-end=0.6 / vbv-end-fr-adj=0.0 / ipratio=1.40 / pbratio=1.30 / aq-mode=2 / aq-strength=1.00 / cutree / zone-count=0 / no-strict-cbr / qg-size=32 / no-rc-grain / qpmax=69 / qpmin=0 / no-const-vbv / sar=1 / overscan=0 / videoformat=5 / range=1 / colorprim=2 / transfer=2 / colormatrix=2 / chromaloc=0 / display-window=0 / cll=0,0 / min-luma=0 / max-luma=1023 / log2-max-poc-lsb=8 / vui-timing-info / vui-hrd-info / no-concatenation / slices=1 / no-opt-qp-pps / no-opt-ref-list-length-pps / no-multi-pass-opt-rps / scenecut-bias=0.05 / hist-threshold=0.01 / no-opt-cu-delta-qp / no-aq-motion / no-hdr10 / no-hdr10-opt / no-dhdr10-opt / no-idr-recovery-sei / analysis-reuse-level=0 / analysis-save-reuse-level=0 / analysis-load-reuse-level=0 / scale-factor=0 / refine-intra=0 / refine-inter=0 / refine-mv=1 / refine-ctu-distortion=0 / no-limit-sao / ctu-info=0 / no-lowpass-dct / refine-analysis-type=0 / copy-pic=1 / max-ausize-factor=1.0 / no-dynamic-refine / no-single-sei / no-hevc-aq / no-svt / no-field / qp-adaptation-range=1.00 / no-scenecut-aware-qpconformance-window-offsets / right=0 / bottom=0 / decoder-max-rate=0
Language : English
Default : Yes
Forced : No
Color range : Full

Audio #1
ID : 2
Format : DTS XLL
Format/Info : Digital Theater Systems
Commercial name : DTS-HD Master Audio
Codec ID : A_DTS
Duration : 1 h 31 min
Bit rate mode : Variable
Bit rate : 3 408 kb/s
Channel(s) : 6 channels
Channel layout : C L R Ls Rs LFE
Sampling rate : 48.0 kHz
Frame rate : 93.750 FPS (512 SPF)
Bit depth : 24 bits
Compression mode : Lossless
Delay relative to video : 3 ms
Stream size : 2.18 GiB (18%)
Title : DTS-HD MA 5.1
Language : English
Default : Yes
Forced : No

Audio #2
ID : 3
Format : AC-3
Format/Info : Audio Coding 3
Commercial name : Dolby Digital
Codec ID : A_AC3
Duration : 1 h 31 min
Bit rate mode : Constant
Bit rate : 384 kb/s
Channel(s) : 6 channels
Channel layout : L R C LFE Ls Rs
Sampling rate : 48.0 kHz
Frame rate : 31.250 FPS (1536 SPF)
Compression mode : Lossy
Stream size : 251 MiB (2%)
Title : English
Language : English
Service kind : Complete Main
Default : Yes
Forced : No

Text #1
ID : 4
Format : UTF-8
Codec ID : S_TEXT/UTF8
Codec ID/Info : UTF-8 Plain Text
Duration : 1 h 27 min
Bit rate : 46 b/s
Count of elements : 1207
Stream size : 29.6 KiB (0%)
Title : English (SDH)
Language : English
Default : Yes
Forced : No

Text #2
ID : 5
Format : PGS
Muxing mode : zlib
Codec ID : S_HDMV/PGS
Codec ID/Info : Picture based subtitle format used on BDs/HD-DVDs
Duration : 1 h 27 min
Bit rate : 28.5 kb/s
Count of elements : 2178
Stream size : 17.9 MiB (0%)
Title : English-PGS
Language : English
Default : No
Forced : No

Text #3
ID : 6
Format : PGS
Muxing mode : zlib
Codec ID : S_HDMV/PGS
Codec ID/Info : Picture based subtitle format used on BDs/HD-DVDs
Duration : 1 h 27 min
Bit rate : 21.7 kb/s
Count of elements : 1680
Stream size : 13.6 MiB (0%)
Title : Spanish-PGS
Language : Spanish
Default : No
Forced : No

Menu
00:00:00.000 : en:Chapter 01
00:05:09.225 : en:Chapter 02
00:11:16.175 : en:Chapter 03
00:16:20.270 : en:Chapter 04
00:24:44.399 : en:Chapter 05
00:28:20.323 : en:Chapter 06
00:35:04.435 : en:Chapter 07
00:42:06.690 : en:Chapter 08
00:47:58.792 : en:Chapter 09
00:51:25.332 : en:Chapter 10
00:56:15.872 : en:Chapter 11
01:01:22.720 : en:Chapter 12
01:07:28.127 : en:Chapter 13
01:13:37.746 : en:Chapter 14
01:20:18.146 : en:Chapter 15
01:26:26.764 : en:Chapter 16


资源速度为零或资源敏感被和谐时,推荐使用qBittorrent等下载软件,有条件的推荐115更好的下载软件!

下载地址


游客,如果您要查看本帖隐藏内容请回复

游客,如果您要查看本帖隐藏内容请回复

游客,如果您要查看本帖隐藏内容请回复


以下为以往链接
游客,如果您要查看本帖隐藏内容请回复




.

上一篇:雨果(内封简繁中字)/ Hugo (2011) 4K高清版本下载
下一篇:杰克茜 / Jexi (2019) 4K高清版本下载
回复

使用道具 举报

34

主题

1588

帖子

4474

积分

4K家园VIP

Rank: 9Rank: 9Rank: 9

积分
4474
发表于 2022-5-2 13:33:32 | 显示全部楼层
为保住菊花,这个一定得回复!
回复 支持 反对

使用道具 举报

1

主题

1415

帖子

4259

积分

4K家园VIP

Rank: 9Rank: 9Rank: 9

积分
4259
发表于 2022-5-5 17:14:27 | 显示全部楼层
在撸一遍。。。
回复 支持 反对

使用道具 举报

3

主题

1423

帖子

4287

积分

4K家园VIP

Rank: 9Rank: 9Rank: 9

积分
4287
发表于 2022-5-8 22:34:38 | 显示全部楼层
路过
回复 支持 反对

使用道具 举报

50

主题

1585

帖子

4591

积分

4K家园VIP

Rank: 9Rank: 9Rank: 9

积分
4591
发表于 2022-5-9 14:41:15 | 显示全部楼层
我只是看看啊,不说话
回复 支持 反对

使用道具 举报

53

主题

1555

帖子

4532

积分

4K家园VIP

Rank: 9Rank: 9Rank: 9

积分
4532
发表于 2022-5-11 16:46:45 | 显示全部楼层
垃圾
回复 支持 反对

使用道具 举报

53

主题

1292

帖子

3944

积分

4K家园VIP

Rank: 9Rank: 9Rank: 9

积分
3944
发表于 2022-11-11 03:44:14 | 显示全部楼层
感谢分享
回复 支持 反对

使用道具 举报

您需要登录后才可以回帖 登录 | 立即注册

本版积分规则

精彩图文
Archiver|手机版|TAG|Sitemap|新帖|专题|联系我们:邮箱: 4kjia.com@gmail.com   

4k家园   ©2019