[4K电影] 杰克茜 / Jexi (2019) 4K高清版本下载

[复制链接]

1701

主题

1834

帖子

1万

积分

超级版主

Rank: 8Rank: 8

积分
13887
 楼主| 发表于 2022-5-2 13:47:08 | 显示全部楼层 |阅读模式

QQ图片20220502134356_副本.png

◎译  名 杰克茜/择洗沟宅男(港)/神机有毛病(台)/我的手机女友
◎片  名 Jexi
◎年  代 2019
◎产  地 美国
◎类  别 喜剧
◎语  言 英语
◎上映日期 2019-10-11(美国)
◎IMDb评分  6.0/10 from 25396 users
◎IMDb链接  https://www.imdb.com/title/tt9354944/
◎豆瓣评分 6.5/10 from 3282 users
◎豆瓣链接 https://movie.douban.com/subject/30432964/
◎导  演 乔恩·卢卡斯 Jon Lucas / 斯科特·摩尔 Scott Moore
◎编  剧 乔恩·卢卡斯 Jon Lucas / 斯科特·摩尔 Scott Moore
◎主  演 亚当·德维尼 Adam DeVine
       亚历山德拉·希普 Alexandra Shipp
       罗丝·伯恩 Rose Byrne
       罗恩·芬奇斯 Ron Funches
       查琳·易 Charlyne Yi
       迈克尔·佩纳 Michael Pe?a
       旺达·塞克丝 Wanda Sykes
       卡迪小子 Kid Cudi
       贾斯汀·哈特雷 Justin Hartley
       玛塞拉·布拉吉奥 Marcella Bragio
       丹吉洛 September D'Angelo
       卡茜·亨德利 Cassie Hendry
       达韦恩·乔丹 Dawayne Jordan
       杰夫·里帕瑞 Jeff Lipary
       约翰·洛巴托 John Lobato
       凯莉·理查德森 Kelly Richardson
       托尼·托斯特 Tony Toste
       贝莉·霍普金斯 Baily Hopkins
       斯蒂芬妮·约翰斯顿 Stephanie Johnston
       赖恩·雷恩 Ryon Lane
       达斯汀·弗雷斯特 Dustin Forrester


◎简  介


  莱克茜是个人工智能助理,她将让“生活更美好”作为己任。而菲尔是个爱手机如命的普通上班族,当杰克茜与菲尔狭路相逢,他们之间发生了一段段令人啼笑皆非的故事。
Video
ID : 1
Format : HEVC
Format/Info : High Efficiency Video Coding
Format profile : Main 10@L5@High
HDR format : Dolby Vision, Version 1.0, dvhe.05.06, BL+RPU
Codec ID : V_MPEGH/ISO/HEVC
Duration : 1 h 24 min
Bit rate : 24.4 Mb/s
Width : 3 828 pixels
Height : 1 592 pixels
Display aspect ratio : 2.40:1
Frame rate mode : Constant
Frame rate : 23.976 (23976/1000) FPS
Color space : YUV
Chroma subsampling : 4:2:0
Bit depth : 10 bits
Bits/(Pixel*Frame) : 0.167
Stream size : 14.4 GiB (86%)
Default : Yes
Forced : No

Audio #1
ID : 2
Format : DTS XLL
Format/Info : Digital Theater Systems
Commercial name : DTS-HD Master Audio
Codec ID : A_DTS
Duration : 1 h 24 min
Bit rate mode : Variable
Bit rate : 3 371 kb/s
Channel(s) : 6 channels
Channel layout : C L R Ls Rs LFE
Sampling rate : 48.0 kHz
Frame rate : 93.750 FPS (512 SPF)
Bit depth : 24 bits
Compression mode : Lossless
Delay relative to video : 6 ms
Stream size : 1.99 GiB (12%)
Title : DTS-HD MA 5.1
Language : English
Default : Yes
Forced : No

Audio #2
ID : 3
Format : AC-3
Format/Info : Audio Coding 3
Commercial name : Dolby Digital
Codec ID : A_AC3
Duration : 1 h 24 min
Bit rate mode : Constant
Bit rate : 384 kb/s
Channel(s) : 6 channels
Channel layout : L R C LFE Ls Rs
Sampling rate : 48.0 kHz
Frame rate : 31.250 FPS (1536 SPF)
Compression mode : Lossy
Stream size : 232 MiB (1%)
Language : English
Service kind : Complete Main
Default : Yes
Forced : No

Text #1
ID : 4
Format : UTF-8
Codec ID : S_TEXT/UTF8
Codec ID/Info : UTF-8 Plain Text
Duration : 1 h 19 min
Bit rate : 105 b/s
Count of elements : 1940
Stream size : 61.4 KiB (0%)
Title : English CC
Language : English
Default : Yes
Forced : No

Text #2
ID : 5
Format : PGS
Muxing mode : zlib
Codec ID : S_HDMV/PGS
Codec ID/Info : Picture based subtitle format used on BDs/HD-DVDs
Duration : 1 h 19 min
Bit rate : 59.7 kb/s
Count of elements : 3340
Stream size : 34.0 MiB (0%)
Title : English (SDH)
Language : English
Default : No
Forced : No

Text #3
ID : 6
Format : PGS
Muxing mode : zlib
Codec ID : S_HDMV/PGS
Codec ID/Info : Picture based subtitle format used on BDs/HD-DVDs
Duration : 1 h 19 min
Bit rate : 49.0 kb/s
Count of elements : 2858
Stream size : 27.7 MiB (0%)
Title : Spanish (Latin American)
Language : Spanish
Default : No
Forced : No

Menu
00:00:00.000 : en:Chapter 01
00:02:53.000 : en:Chapter 02
00:13:33.000 : en:Chapter 03
00:20:41.000 : en:Chapter 04
00:29:40.000 : en:Chapter 05
00:38:26.000 : en:Chapter 06
00:47:47.000 : en:Chapter 07
00:58:55.000 : en:Chapter 08
01:07:33.000 : en:Chapter 09
01:18:54.000 : en:Chapter 10
资源速度为零或资源敏感被和谐时,推荐使用qBittorrent等下载软件,有条件的推荐115更好的下载软件!

下载地址



游客,如果您要查看本帖隐藏内容请回复

游客,如果您要查看本帖隐藏内容请回复

游客,如果您要查看本帖隐藏内容请回复

游客,如果您要查看本帖隐藏内容请回复



.

上一篇:黑夜造访 / It Comes at Night (2017) 4K高清版本下载
下一篇:甜心女孩(内封简繁中字)/ Sweet Girl (2021) 4K高清版本下载
回复

使用道具 举报

2

主题

1733

帖子

4833

积分

4K家园VIP

Rank: 9Rank: 9Rank: 9

积分
4833
发表于 2022-5-2 13:47:12 | 显示全部楼层
顶顶更健康
回复 支持 反对

使用道具 举报

48

主题

1537

帖子

4421

积分

4K家园VIP

Rank: 9Rank: 9Rank: 9

积分
4421
发表于 2022-5-2 17:19:09 | 显示全部楼层
打酱油的人拉,回复下赚取积分
回复 支持 反对

使用道具 举报

0

主题

11

帖子

35

积分

新手上路

Rank: 1

积分
35
发表于 2022-5-3 11:47:40 | 显示全部楼层
我是来要金币的
回复 支持 反对

使用道具 举报

2

主题

1149

帖子

3467

积分

4K家园VIP

Rank: 9Rank: 9Rank: 9

积分
3467
发表于 前天 10:43 | 显示全部楼层
怎么这么大,希望我电视能看啊
回复 支持 反对

使用道具 举报

1

主题

1388

帖子

4000

积分

4K家园VIP

Rank: 9Rank: 9Rank: 9

积分
4000
发表于 2 小时前 | 显示全部楼层
你们要是有4K资源记得分享,别小气
回复 支持 反对

使用道具 举报

您需要登录后才可以回帖 登录 | 立即注册

本版积分规则

精彩图文
Archiver|手机版|TAG|Sitemap|新帖|专题|联系我们:邮箱: 4kjia.com@gmail.com   

4k家园   ©2019