[4K电影] 查帕奎迪克 / Chappaquiddick(2017)4K高清版本下载

[复制链接]

主题

帖子

0

积分

超级版主

Rank: 8Rank: 8

积分
0
 楼主| 发表于 2022-5-3 10:13:24 | 显示全部楼层 |阅读模式
QQ图片20220502173655_副本.png

◎译  名 查帕奎迪克/查帕奎迪克事件
◎片  名 Chappaquiddick
◎年  代 2017
◎产  地 瑞典/美国
◎类  别 剧情/历史/惊悚
◎语  言 英语
◎上映日期 2017-09-10(多伦多电影节)/2018-04-06(美国)
◎IMDb评分  6.4/10 from 13279 users
◎IMDb链接  http://www.imdb.com/title/tt5270948/
◎豆瓣评分 5.9/10 from 408 users
◎豆瓣链接 https://movie.douban.com/subject/26780538/
◎片  长 106分钟
◎导  演 约翰·卡兰 John Curran
◎主  演 杰森·克拉克 Jason Clarke
      艾德·赫尔姆斯 Ed Helms
      吉姆·加菲根 Jim Gaffigan
      凯特·玛拉 Kate Mara
      布鲁斯·邓恩 Bruce Dern
      约翰·菲奥里 John Fiore
      Gillian Mariner Gordon
      奥莉薇·瑟尔比 Olivia Thirlby
      Katie Henoch
      Lexie Roth
      Angela Hope Smith
      Vince Tycer
      Victor Warren
      泰勒·尼科斯 Taylor Nichols
      David De Beck

◎简  介

  澳大利亚男演员杰森·克拉科将出演影片《查帕奎迪克岛》(Chappaquiddick,暂译),他在片中饰演肯尼迪家族成员之一参议员爱德华·肯尼迪,即肯尼迪总统的弟弟。《面纱》导演约翰·卡兰执导筒。影片将聚焦1969年以爱德华·肯尼迪为核心的“查帕奎迪克丑闻事件”,“肯尼迪诅咒”再次现身大银幕。

Video
ID : 1
Format : HEVC
Format/Info : High Efficiency Video Coding
Format profile : Main 10@L5@High
HDR format : Dolby Vision, Version 1.0, dvhe.05.06, BL+RPU
Codec ID : V_MPEGH/ISO/HEVC
Duration : 1 h 46 min
Bit rate : 24.4 Mb/s
Width : 3 832 pixels
Height : 1 596 pixels
Display aspect ratio : 2.40:1
Frame rate mode : Constant
Frame rate : 23.976 (23976/1000) FPS
Color space : YUV
Chroma subsampling : 4:2:0
Bit depth : 10 bits
Bits/(Pixel*Frame) : 0.167
Stream size : 18.2 GiB (88%)
Default : Yes
Forced : No

Audio #1
ID : 2
Format : DTS XLL
Format/Info : Digital Theater Systems
Commercial name : DTS-HD Master Audio
Codec ID : A_DTS
Duration : 1 h 46 min
Bit rate mode : Variable
Bit rate : 2 974 kb/s
Channel(s) : 6 channels
Channel layout : C L R Ls Rs LFE
Sampling rate : 48.0 kHz
Frame rate : 93.750 FPS (512 SPF)
Bit depth : 24 bits
Compression mode : Lossless
Stream size : 2.22 GiB (11%)
Title : DTS-HD MA 5.1
Language : English
Default : Yes
Forced : No

Audio #2
ID : 3
Format : AC-3
Format/Info : Audio Coding 3
Commercial name : Dolby Digital
Codec ID : A_AC3
Duration : 1 h 46 min
Bit rate mode : Constant
Bit rate : 384 kb/s
Channel(s) : 6 channels
Channel layout : L R C LFE Ls Rs
Sampling rate : 48.0 kHz
Frame rate : 31.250 FPS (1536 SPF)
Compression mode : Lossy
Stream size : 293 MiB (1%)
Language : English
Service kind : Complete Main
Default : Yes
Forced : No

Text #1
ID : 4
Format : UTF-8
Codec ID : S_TEXT/UTF8
Codec ID/Info : UTF-8 Plain Text
Duration : 1 h 39 min
Bit rate : 85 b/s
Count of elements : 1729
Stream size : 62.4 KiB (0%)
Title : English CC
Language : English
Default : Yes
Forced : No

Text #2
ID : 5
Format : UTF-8
Codec ID : S_TEXT/UTF8
Codec ID/Info : UTF-8 Plain Text
Duration : 1 h 39 min
Bit rate : 107 b/s
Count of elements : 1184
Stream size : 78.4 KiB (0%)
Title : Arabic
Language : Arabic
Default : No
Forced : No

Menu
00:00:00.000 : en:Chapter 01
00:06:44.000 : en:Chapter 02
00:14:08.000 : en:Chapter 03
00:20:35.000 : en:Chapter 04
00:25:19.000 : en:Chapter 05
00:31:14.000 : en:Chapter 06
00:39:25.000 : en:Chapter 07
00:49:13.000 : en:Chapter 08
01:01:31.000 : en:Chapter 09
01:06:56.000 : en:Chapter 10
01:12:15.000 : en:Chapter 11
01:18:17.000 : en:Chapter 12
01:29:31.000 : en:Chapter 13
01:40:55.000 : en:Chapter 14


资源速度为零或资源敏感被和谐时,推荐使用qBittorrent等下载软件,有条件的推荐115更好的下载软件!

下载地址


游客,如果您要查看本帖隐藏内容请回复

游客,如果您要查看本帖隐藏内容请回复

游客,如果您要查看本帖隐藏内容请回复


以往链接
游客,如果您要查看本帖隐藏内容请回复



.

上一篇:甜心女孩(内封简繁中字)/ Sweet Girl (2021) 4K高清版本下载
下一篇:朱迪 / Judy (2019) 4K高清版本下载
回复

使用道具 举报

0

主题

1396

帖子

4216

积分

4K家园VIP

Rank: 9Rank: 9Rank: 9

积分
4216
发表于 2022-5-3 10:13:28 | 显示全部楼层
4K家园不错,希望这种资源越多越好
回复 支持 反对

使用道具 举报

2

主题

1711

帖子

4773

积分

4K家园VIP

Rank: 9Rank: 9Rank: 9

积分
4773
发表于 2022-5-3 11:20:13 来自手机 | 显示全部楼层
楼主这资源不错,我收藏了
回复 支持 反对

使用道具 举报

62

主题

1659

帖子

4810

积分

4K家园VIP

Rank: 9Rank: 9Rank: 9

积分
4810
发表于 2022-5-3 12:13:40 | 显示全部楼层
你们要是有4K资源记得分享,别小气
回复 支持 反对

使用道具 举报

1

主题

1655

帖子

4607

积分

4K家园VIP

Rank: 9Rank: 9Rank: 9

积分
4607
发表于 2022-5-3 12:25:59 来自手机 | 显示全部楼层
支持一下楼主,顶起来
回复 支持 反对

使用道具 举报

1

主题

1409

帖子

4245

积分

4K家园VIP

Rank: 9Rank: 9Rank: 9

积分
4245
发表于 2022-5-3 15:20:42 | 显示全部楼层
前排,哇咔咔
回复 支持 反对

使用道具 举报

主题

帖子

41

积分

新手上路

Rank: 1

积分
41
发表于 2022-5-3 19:52:24 | 显示全部楼层
多谢多谢,感激不尽
回复 支持 反对

使用道具 举报

主题

帖子

41

积分

新手上路

Rank: 1

积分
41
发表于 2022-5-3 19:52:39 | 显示全部楼层
资源丰富,就是不知道能不能下载
回复 支持 反对

使用道具 举报

主题

帖子

18

积分

新手上路

Rank: 1

积分
18
发表于 2022-5-3 21:20:16 | 显示全部楼层
111111111111111111111111111111111
回复 支持 反对

使用道具 举报

主题

帖子

19

积分

新手上路

Rank: 1

积分
19
发表于 2022-5-4 07:44:52 | 显示全部楼层
谢谢谢谢谢
回复 支持 反对

使用道具 举报

您需要登录后才可以回帖 登录 | 立即注册

本版积分规则

精彩图文
Archiver|手机版|TAG|Sitemap|新帖|专题|联系我们:邮箱: 4kjia.com@gmail.com   

4k家园   ©2019