[4K电影] 朱迪 / Judy (2019) 4K高清版本下载

[复制链接]

1735

主题

1868

帖子

1万

积分

超级版主

Rank: 8Rank: 8

积分
14105
 楼主| 发表于 2022-5-3 10:21:42 | 显示全部楼层 |阅读模式
本帖最后由 最爱4K哟 于 2022-5-3 11:04 编辑

QQ图片20220503110230_副本.png

◎译  名 朱迪/星梦女神:茱地嘉兰(港)/茱蒂(台)
◎片  名 Judy
◎年  代 2019
◎产  地 英国
◎类  别 剧情/爱情/传记
◎语  言 英语
◎上映日期 2019-08-30(特柳赖德电影节)/2019-09-10(多伦多电影节)/2019-10-02(英国)
◎IMDb评分  6.8/10 from 49482 users
◎IMDb链接  https://www.imdb.com/title/tt7549996/
◎豆瓣评分 7.5/10 from 35552 users
◎豆瓣链接 https://movie.douban.com/subject/27179039/
◎导  演 鲁伯特·古尔德 Rupert Goold
◎编  剧 汤姆·艾吉 Tom Edge
◎主  演 蕾妮·齐薇格 Renée Zellweger
      贝拉·拉姆齐 Bella Ramsey
      卢夫斯·塞维尔 Rufus Sewell
      杰西·巴克利 Jessie Buckley
      迈克尔·刚本 Michael Gambon
      勒温·劳埃德 Lewin Lloyd
      芬·维特洛克 Finn Wittrock
      安迪·尼曼 Andy Nyman
      费奈拉·伍尔加 Fenella Woolgar
      罗伊斯·皮尔逊 Royce Pierreson
      约翰·达格尔什 John Dagleish
      菲尔·邓斯特 Phil Dunster
      露西·拉塞尔 Lucy Russell
      嘉玛-莉亚·德弗罗 Gemma-Leah Devereux
      菲利普·斯波 Philippe Spall
      蒂姆·埃亨 Tim Ahern
      宾利·卡鲁 Bentley Kalu
      朱利安·费罗 Julian Ferro
      伊斯雷尔·鲁兹 Israel Ruiz
      汤姆·杜兰特·普里特查德 Tom Durant Pritchard
      达茜·肖 Darci Shaw
      理查德·科德里 Richard Cordery
      约翰·麦凯 John Mackay

◎简  介

  故事开始于20世纪30年代的好莱坞,14岁的朱迪(蕾妮·齐薇格 Renée Zellweger 饰)因为其甜美的嗓音而被经纪人梅耶(理查德·科德里 Richard Cordery 饰)看中,就此走上了星途,但此时的朱迪并不知道的是,等待着她的,除了功成名就所带来的的名声和财富之外,更多的是痛苦。 时间来到几十年后,已经40岁的朱迪同丈夫西德尼(卢夫斯·塞维尔 Rufus Sewell 饰)离了婚,独自抚养两个孩子罗娜(贝拉·拉姆齐 Bella Ramsey 饰)和乔伊(勒温·劳埃德 Lewin Lloyd 饰),经济状况十分的糟糕。无奈之下,朱迪做了一个决定,那就是将两个孩子留给前夫,自己前往英国继续打拼事业,可是此时的朱迪的健康情况已经非常的糟糕了,更糟的是,她早已经失去了粉丝们的信任。

Video
ID : 1
Format : HEVC
Format/Info : High Efficiency Video Coding
Format profile : Main 10@L5@High
HDR format : SMPTE ST 2086, HDR10 compatible
Codec ID : V_MPEGH/ISO/HEVC
Duration : 1 h 58 min
Bit rate : 14.4 Mb/s
Width : 3 828 pixels
Height : 1 594 pixels
Display aspect ratio : 2.40:1
Frame rate mode : Constant
Frame rate : 23.976 FPS
Color space : YUV
Chroma subsampling : 4:2:0 (Type 2)
Bit depth : 10 bits
Bits/(Pixel*Frame) : 0.098
Stream size : 11.9 GiB (86%)
Default : Yes
Forced : No
Color range : Limited
Color primaries : BT.2020
Transfer characteristics : PQ
Matrix coefficients : BT.2020 non-constant
Mastering display color primaries : BT.2020
Mastering display luminance : min: 0.0020 cd/m2, max: 1000 cd/m2
Maximum Content Light Level : 839 cd/m2
Maximum Frame-Average Light Level : 133 cd/m2

Audio #1
ID : 2
Format : DTS XLL
Format/Info : Digital Theater Systems
Commercial name : DTS-HD Master Audio
Codec ID : A_DTS
Duration : 1 h 58 min
Bit rate mode : Variable
Bit rate : 1 836 kb/s
Channel(s) : 6 channels
Channel layout : C L R Ls Rs LFE
Sampling rate : 48.0 kHz
Frame rate : 93.750 FPS (512 SPF)
Bit depth : 16 bits
Compression mode : Lossless
Delay relative to video : 3 ms
Stream size : 1.52 GiB (11%)
Title : DTS-HD MA 5.1
Language : English
Default : Yes
Forced : No

Audio #2
ID : 3
Format : AC-3
Format/Info : Audio Coding 3
Commercial name : Dolby Digital
Codec ID : A_AC3
Duration : 1 h 58 min
Bit rate mode : Constant
Bit rate : 384 kb/s
Channel(s) : 6 channels
Channel layout : L R C LFE Ls Rs
Sampling rate : 48.0 kHz
Frame rate : 31.250 FPS (1536 SPF)
Compression mode : Lossy
Stream size : 325 MiB (2%)
Language : English
Service kind : Complete Main
Default : No
Forced : No

Text #1
ID : 4
Format : UTF-8
Codec ID : S_TEXT/UTF8
Codec ID/Info : UTF-8 Plain Text
Duration : 1 h 49 min
Bit rate : 65 b/s
Count of elements : 1724
Stream size : 52.6 KiB (0%)
Title : English CC
Language : English
Default : Yes
Forced : No

Text #2
ID : 5
Format : PGS
Muxing mode : zlib
Codec ID : S_HDMV/PGS
Codec ID/Info : Picture based subtitle format used on BDs/HD-DVDs
Duration : 1 h 49 min
Bit rate : 43.1 kb/s
Count of elements : 3680
Stream size : 33.7 MiB (0%)
Title : SDH
Language : English
Default : No
Forced : No

Text #3
ID : 6
Format : PGS
Muxing mode : zlib
Codec ID : S_HDMV/PGS
Codec ID/Info : Picture based subtitle format used on BDs/HD-DVDs
Duration : 1 h 50 min
Bit rate : 37.1 kb/s
Count of elements : 3510
Stream size : 29.2 MiB (0%)
Title : Latin American
Language : Spanish
Default : No
Forced : No

Menu
00:00:00.000 : en:Chapter 01
00:07:12.000 : en:Chapter 02
00:17:05.000 : en:Chapter 03
00:28:03.000 : en:Chapter 04
00:37:14.000 : en:Chapter 05
00:45:34.000 : en:Chapter 06
00:55:21.000 : en:Chapter 07
01:04:23.000 : en:Chapter 08
01:16:00.000 : en:Chapter 09
01:27:42.000 : en:Chapter 10
01:36:00.000 : en:Chapter 11
01:45:36.000 : en:Chapter 12
01:51:19.000 : en:Chapter 13

资源速度为零或资源敏感被和谐时,推荐使用qBittorrent等下载软件,有条件的推荐115更好的下载软件!

下载地址


游客,如果您要查看本帖隐藏内容请回复

游客,如果您要查看本帖隐藏内容请回复








上一篇:查帕奎迪克 / Chappaquiddick(2017)4K高清版本下载
下一篇:遇见你之前 (内封简繁中字) / Me Before You (2016) 4K高清版本下载
回复

使用道具 举报

51

主题

1574

帖子

4538

积分

4K家园VIP

Rank: 9Rank: 9Rank: 9

积分
4538
发表于 2022-5-3 10:21:47 来自手机 | 显示全部楼层
楼主这资源不错,我收藏了
回复 支持 反对

使用道具 举报

0

主题

11

帖子

35

积分

新手上路

Rank: 1

积分
35
发表于 2022-5-3 11:46:26 | 显示全部楼层
太好看了~分享了!!
回复 支持 反对

使用道具 举报

1

主题

1672

帖子

4672

积分

4K家园VIP

Rank: 9Rank: 9Rank: 9

积分
4672
发表于 2022-5-3 13:36:38 来自手机 | 显示全部楼层
好帖必须得顶起
回复 支持 反对

使用道具 举报

0

主题

16

帖子

41

积分

新手上路

Rank: 1

积分
41
发表于 2022-5-4 14:51:58 | 显示全部楼层
有哪些下载模式?
回复 支持 反对

使用道具 举报

2

主题

1342

帖子

4042

积分

4K家园VIP

Rank: 9Rank: 9Rank: 9

积分
4042
发表于 2022-5-9 11:32:53 | 显示全部楼层
沙发位出租,
回复 支持 反对

使用道具 举报

1

主题

1505

帖子

4365

积分

4K家园VIP

Rank: 9Rank: 9Rank: 9

积分
4365
发表于 2022-5-9 12:34:41 来自手机 | 显示全部楼层
秀起来~
回复 支持 反对

使用道具 举报

49

主题

1471

帖子

4215

积分

4K家园VIP

Rank: 9Rank: 9Rank: 9

积分
4215
发表于 2022-5-11 09:59:44 | 显示全部楼层
分享的不错,希望楼主继续分享
回复 支持 反对

使用道具 举报

您需要登录后才可以回帖 登录 | 立即注册

本版积分规则

精彩图文
Archiver|手机版|TAG|Sitemap|新帖|专题|联系我们:邮箱: 4kjia.com@gmail.com   

4k家园   ©2019