[4K电影] 遇见你之前 (内封简繁中字) / Me Before You (2016) 4K高清版本下载

[复制链接]

1733

主题

1866

帖子

1万

积分

超级版主

Rank: 8Rank: 8

积分
14095
 楼主| 发表于 2022-5-3 10:32:37 | 显示全部楼层 |阅读模式
本帖最后由 最爱4K哟 于 2022-5-3 11:04 编辑

QQ图片20220503110137_副本.png

◎译  名 遇见你之前 / 我就要你好好的(台) / 温暖的遇见你
◎片  名 Me Before You
◎年  代 2016
◎产  地 英国
◎类  别 剧情 / 爱情
◎语  言 英语
◎上映日期 2016-06-03(美国)
◎IMDb评分 7.4/10 from 190909 users
◎IMDb链接 https://www.imdb.com/title/tt2674426
◎豆瓣评分 7.9/10 from 200929 users
◎豆瓣链接 https://movie.douban.com/subject/25929151/
◎片  长 110分钟
◎导  演 西娅·夏罗克 Thea Sharrock
◎编  剧 斯科特·纽斯塔德 Scott Neustadter / 迈克尔·H·韦伯 Michael H. Weber / 乔乔·莫伊斯 Jojo Moyes
◎主  演 艾米莉亚·克拉克 Emilia Clarke
      山姆·克拉弗林 Sam Claflin
      珍妮·麦克蒂尔 Janet McTeer
      查尔斯·丹斯 Charles Dance
      布兰登·柯伊尔 Brendan Coyle
      珍娜·科尔曼 Jenna Coleman
      马修·刘易斯 Matthew Lewis
      本·劳埃德-休斯 Ben Lloyd-Hughes
      凡妮莎·柯比 Vanessa Kirby
      斯蒂芬·皮科克 Stephen Peacocke
      马修·约翰·摩尔利 Matthew John Morley
      汉娜·弗林 Hannah Flynn


◎简  介

  来自于小镇的年轻女孩小露(艾米莉亚·克拉克 Emilia Clarke 饰)应聘成为了一名看护,她所要照顾的对象,是一位名叫威尔(山姆·克拉弗林 Sam Claflin 饰)的男子。曾经的威尔家境优渥,热爱自由,喜欢到世界各地冒险,然而,一场可怕的车祸粉碎了他的脊椎,使他四肢瘫痪,这也就意味着,威尔漫长的下半生只能在轮椅上度过了。
  就这样,小露在误打误撞之中开始了和威尔的共同生活,但威尔很快就发现,小露和之前的看护们截然不同,个性大大咧咧的她从来不会对自己的伤痛避而不谈,但正是这种直面惨淡的勇气给威尔带来了不一样的感觉。在小露的陪伴下,威尔开始渐渐重新体味到了快乐的感觉,小露的坚强亦让威尔开始认真思考起自己的未来。

◎获奖情况

  第3届豆瓣电影年度榜单(2016)
  最受关注的非院线电影(提名)
  评分最高的爱情片(提名)
  7月最受关注电影(提名)

Video
ID : 1
Format : HEVC
Format/Info : High Efficiency Video Coding
Format profile : Main 10@L5@High
HDR format : Dolby Vision, Version 1.0, dvhe.05.06, BL+RPU
Codec ID : V_MPEGH/ISO/HEVC
Duration : 1 h 50 min
Bit rate : 14.3 Mb/s
Width : 3 840 pixels
Height : 1 600 pixels
Display aspect ratio : 2.40:1
Frame rate mode : Constant
Frame rate : 23.976 (24000/1001) FPS
Color space : YUV
Chroma subsampling : 4:2:0
Bit depth : 10 bits
Bits/(Pixel*Frame) : 0.097
Stream size : 11.0 GiB (77%)
Default : Yes
Forced : No

Audio #1
ID : 2
Format : DTS XLL
Format/Info : Digital Theater Systems
Commercial name : DTS-HD Master Audio
Codec ID : A_DTS
Duration : 1 h 50 min
Bit rate mode : Variable
Bit rate : 3 511 kb/s
Channel(s) : 6 channels
Channel layout : C L R Ls Rs LFE
Sampling rate : 48.0 kHz
Frame rate : 93.750 FPS (512 SPF)
Bit depth : 24 bits
Compression mode : Lossless
Delay relative to video : 10 ms
Stream size : 2.70 GiB (19%)
Title : DTS-HD MA 5.1
Language : English
Default : Yes
Forced : No

Audio #2
ID : 3
Format : AC-3
Format/Info : Audio Coding 3
Commercial name : Dolby Digital
Codec ID : A_AC3
Duration : 1 h 50 min
Bit rate mode : Constant
Bit rate : 384 kb/s
Channel(s) : 6 channels
Channel layout : L R C LFE Ls Rs
Sampling rate : 48.0 kHz
Frame rate : 31.250 FPS (1536 SPF)
Compression mode : Lossy
Stream size : 303 MiB (2%)
Title : British
Language : English
Service kind : Complete Main
Default : Yes
Forced : No

Text #1
ID : 4
Format : UTF-8
Codec ID : S_TEXT/UTF8
Codec ID/Info : UTF-8 Plain Text
Duration : 1 h 45 min
Bit rate : 92 b/s
Count of elements : 1657
Stream size : 71.3 KiB (0%)
Title : Arabic
Language : Arabic
Default : No
Forced : No

Text #2
ID : 5
Format : UTF-8
Codec ID : S_TEXT/UTF8
Codec ID/Info : UTF-8 Plain Text
Duration : 1 h 45 min
Bit rate : 52 b/s
Count of elements : 1631
Stream size : 40.6 KiB (0%)
Title : 中文繁体
Language : 中文
Default : No
Forced : No


Text #3
ID : 6
Format : UTF-8
Codec ID : S_TEXT/UTF8
Codec ID/Info : UTF-8 Plain Text
Duration : 1 h 45 min
Bit rate : 73 b/s
Count of elements : 1664
Stream size : 56.5 KiB (0%)
Title : German
Language : German
Default : No
Forced : No

Text #4
ID : 7
Format : UTF-8
Codec ID : S_TEXT/UTF8
Codec ID/Info : UTF-8 Plain Text
Duration : 1 h 49 min
Bit rate : 98 b/s
Count of elements : 1345
Stream size : 79.2 KiB (0%)
Title : Greek
Language : Greek
Default : No
Forced : No

Text #5
ID : 8
Format : UTF-8
Codec ID : S_TEXT/UTF8
Codec ID/Info : UTF-8 Plain Text
Duration : 1 h 45 min
Bit rate : 69 b/s
Count of elements : 1762
Stream size : 53.3 KiB (0%)
Title : English British (CC)
Language : English
Default : No
Forced : No

Text #6
ID : 9
Format : UTF-8
Codec ID : S_TEXT/UTF8
Codec ID/Info : UTF-8 Plain Text
Duration : 1 h 45 min
Bit rate : 60 b/s
Count of elements : 1623
Stream size : 46.6 KiB (0%)
Title : Spanish Latin American
Language : Spanish
Default : No
Forced : No

Text #7
ID : 10
Format : UTF-8
Codec ID : S_TEXT/UTF8
Codec ID/Info : UTF-8 Plain Text
Duration : 1 h 49 min
Bit rate : 54 b/s
Count of elements : 1506
Stream size : 44.0 KiB (0%)
Title : Spanish European
Language : Spanish
Default : No
Forced : No

Text #8
ID : 11
Format : UTF-8
Codec ID : S_TEXT/UTF8
Codec ID/Info : UTF-8 Plain Text
Duration : 1 h 49 min
Bit rate : 50 b/s
Count of elements : 1662
Stream size : 40.3 KiB (0%)
Title : Estonian
Language : Estonian
Default : No
Forced : No

Text #9
ID : 12
Format : UTF-8
Codec ID : S_TEXT/UTF8
Codec ID/Info : UTF-8 Plain Text
Duration : 1 h 49 min
Bit rate : 57 b/s
Count of elements : 1681
Stream size : 45.7 KiB (0%)
Title : French European
Language : French
Default : No
Forced : No

Text #10
ID : 13
Format : UTF-8
Codec ID : S_TEXT/UTF8
Codec ID/Info : UTF-8 Plain Text
Duration : 1 h 45 min
Bit rate : 56 b/s
Count of elements : 1590
Stream size : 43.2 KiB (0%)
Title : Italian
Language : Italian
Default : No
Forced : No

Text #11
ID : 14
Format : UTF-8
Codec ID : S_TEXT/UTF8
Codec ID/Info : UTF-8 Plain Text
Duration : 1 h 45 min
Bit rate : 44 b/s
Count of elements : 1369
Stream size : 34.5 KiB (0%)
Title : Japanese
Language : Japanese
Default : No
Forced : No

Text #12
ID : 15
Format : UTF-8
Codec ID : S_TEXT/UTF8
Codec ID/Info : UTF-8 Plain Text
Duration : 1 h 49 min
Bit rate : 57 b/s
Count of elements : 1593
Stream size : 46.0 KiB (0%)
Title : Korean
Language : Korean
Default : No
Forced : No

Text #13
ID : 16
Format : UTF-8
Codec ID : S_TEXT/UTF8
Codec ID/Info : UTF-8 Plain Text
Duration : 1 h 49 min
Bit rate : 57 b/s
Count of elements : 1647
Stream size : 46.2 KiB (0%)
Title : Lithuanian
Language : Lithuanian
Default : No
Forced : No

Text #14
ID : 17
Format : UTF-8
Codec ID : S_TEXT/UTF8
Codec ID/Info : UTF-8 Plain Text
Duration : 1 h 49 min
Bit rate : 55 b/s
Count of elements : 1677
Stream size : 44.2 KiB (0%)
Title : Latvian
Language : Latvian
Default : No
Forced : No

Text #15
ID : 18
Format : UTF-8
Codec ID : S_TEXT/UTF8
Codec ID/Info : UTF-8 Plain Text
Duration : 1 h 49 min
Bit rate : 50 b/s
Count of elements : 1360
Stream size : 40.8 KiB (0%)
Title : Dutch
Language : Dutch
Default : No
Forced : No

Text #16
ID : 19
Format : UTF-8
Codec ID : S_TEXT/UTF8
Codec ID/Info : UTF-8 Plain Text
Duration : 1 h 49 min
Bit rate : 57 b/s
Count of elements : 1629
Stream size : 45.9 KiB (0%)
Title : Portuguese Brazilian
Language : Portuguese
Default : No
Forced : No

Text #17
ID : 20
Format : UTF-8
Codec ID : S_TEXT/UTF8
Codec ID/Info : UTF-8 Plain Text
Duration : 1 h 45 min
Bit rate : 97 b/s
Count of elements : 1638
Stream size : 74.9 KiB (0%)
Title : Russian
Language : Russian
Default : No
Forced : No

Text #18
ID : 21
Format : UTF-8
Codec ID : S_TEXT/UTF8
Codec ID/Info : UTF-8 Plain Text
Duration : 1 h 49 min
Bit rate : 52 b/s
Count of elements : 1101
Stream size : 42.0 KiB (0%)
Title : Slovenian
Language : Slovenian
Default : No
Forced : No

Text #19
ID : 22
Format : UTF-8
Codec ID : S_TEXT/UTF8
Codec ID/Info : UTF-8 Plain Text
Duration : 1 h 49 min
Bit rate : 144 b/s
Count of elements : 1641
Stream size : 116 KiB (0%)
Title : Thai
Language : Thai
Default : No
Forced : No

Text #20
ID : 23
Format : UTF-8
Codec ID : S_TEXT/UTF8
Codec ID/Info : UTF-8 Plain Text
Duration : 1 h 49 min
Bit rate : 57 b/s
Count of elements : 1629
Stream size : 46.2 KiB (0%)
Title : Turkish
Language : Turkish
Default : No
Forced : No

Text #21
ID : 24
Format : UTF-8
Codec ID : S_TEXT/UTF8
Codec ID/Info : UTF-8 Plain Text
Duration : 1 h 45 min
Bit rate : 53 b/s
Count of elements : 1640
Stream size : 41.0 KiB (0%)
Title : 中文繁体
Language : 中文
Default : No
Forced : No

Text #22
ID : 25
Format : PGS
Muxing mode : zlib
Codec ID : S_HDMV/PGS
Codec ID/Info : Picture based subtitle format used on BDs/HD-DVDs
Duration : 1 h 49 min
Bit rate : 40.4 kb/s
Count of elements : 3494
Stream size : 31.6 MiB (0%)
Title : SDH
Language : English
Default : No
Forced : No

Text #23
ID : 26
Format : PGS
Muxing mode : zlib
Codec ID : S_HDMV/PGS
Codec ID/Info : Picture based subtitle format used on BDs/HD-DVDs
Duration : 1 h 49 min
Bit rate : 19.3 kb/s
Count of elements : 3316
Stream size : 15.1 MiB (0%)
Language : Arabic
Default : No
Forced : No

Text #24
ID : 27
Format : PGS
Muxing mode : zlib
Codec ID : S_HDMV/PGS
Codec ID/Info : Picture based subtitle format used on BDs/HD-DVDs
Duration : 1 h 49 min
Bit rate : 35.0 kb/s
Count of elements : 3284
Stream size : 27.4 MiB (0%)
Title : 中文(粤语)
Language : 中文
Default : No
Forced : No


Text #25
ID : 28
Format : PGS
Muxing mode : zlib
Codec ID : S_HDMV/PGS
Codec ID/Info : Picture based subtitle format used on BDs/HD-DVDs
Duration : 1 h 49 min
Bit rate : 35.6 kb/s
Count of elements : 3290
Stream size : 27.8 MiB (0%)
Title : 中文(今天)
Language : 中文
Default : No
Forced : No


Text #26
ID : 29
Format : PGS
Muxing mode : zlib
Codec ID : S_HDMV/PGS
Codec ID/Info : Picture based subtitle format used on BDs/HD-DVDs
Duration : 1 h 49 min
Bit rate : 35.4 kb/s
Count of elements : 3264
Stream size : 27.7 MiB (0%)
Title : 中文(繁体)
Language : 中文
Default : No
Forced : No

Text #27
ID : 30
Format : PGS
Muxing mode : zlib
Codec ID : S_HDMV/PGS
Codec ID/Info : Picture based subtitle format used on BDs/HD-DVDs
Duration : 1 h 49 min
Bit rate : 24.6 kb/s
Count of elements : 3274
Stream size : 19.2 MiB (0%)
Language : Czech
Default : No
Forced : No

Text #28
ID : 31
Format : PGS
Muxing mode : zlib
Codec ID : S_HDMV/PGS
Codec ID/Info : Picture based subtitle format used on BDs/HD-DVDs
Duration : 1 h 49 min
Bit rate : 29.7 kb/s
Count of elements : 1928
Stream size : 23.2 MiB (0%)
Language : Danish
Default : No
Forced : No

Text #29
ID : 32
Format : PGS
Muxing mode : zlib
Codec ID : S_HDMV/PGS
Codec ID/Info : Picture based subtitle format used on BDs/HD-DVDs
Duration : 1 h 49 min
Bit rate : 30.6 kb/s
Count of elements : 2722
Stream size : 23.9 MiB (0%)
Language : Dutch
Default : No
Forced : No

Text #30
ID : 33
Format : PGS
Muxing mode : zlib
Codec ID : S_HDMV/PGS
Codec ID/Info : Picture based subtitle format used on BDs/HD-DVDs
Duration : 1 h 49 min
Bit rate : 28.4 kb/s
Count of elements : 2598
Stream size : 22.3 MiB (0%)
Language : Finnish
Default : No
Forced : No

Text #31
ID : 34
Format : PGS
Muxing mode : zlib
Codec ID : S_HDMV/PGS
Codec ID/Info : Picture based subtitle format used on BDs/HD-DVDs
Duration : 1 h 49 min
Bit rate : 33.2 kb/s
Count of elements : 3366
Stream size : 26.0 MiB (0%)
Language : French
Default : No
Forced : No

Text #32
ID : 35
Format : PGS
Muxing mode : zlib
Codec ID : S_HDMV/PGS
Codec ID/Info : Picture based subtitle format used on BDs/HD-DVDs
Duration : 1 h 49 min
Bit rate : 46.1 kb/s
Count of elements : 3552
Stream size : 36.1 MiB (0%)
Language : German
Default : No
Forced : No

Text #33
ID : 36
Format : PGS
Muxing mode : zlib
Codec ID : S_HDMV/PGS
Codec ID/Info : Picture based subtitle format used on BDs/HD-DVDs
Duration : 1 h 49 min
Bit rate : 36.1 kb/s
Count of elements : 2692
Stream size : 28.2 MiB (0%)
Language : Greek
Default : No
Forced : No

Text #34
ID : 37
Format : PGS
Muxing mode : zlib
Codec ID : S_HDMV/PGS
Codec ID/Info : Picture based subtitle format used on BDs/HD-DVDs
Duration : 1 h 49 min
Bit rate : 30.2 kb/s
Count of elements : 3202
Stream size : 23.6 MiB (0%)
Language : Hebrew
Default : No
Forced : No

Text #35
ID : 38
Format : PGS
Muxing mode : zlib
Codec ID : S_HDMV/PGS
Codec ID/Info : Picture based subtitle format used on BDs/HD-DVDs
Duration : 1 h 49 min
Bit rate : 36.0 kb/s
Count of elements : 2542
Stream size : 28.2 MiB (0%)
Language : Hungarian
Default : No
Forced : No

Text #36
ID : 39
Format : PGS
Muxing mode : zlib
Codec ID : S_HDMV/PGS
Codec ID/Info : Picture based subtitle format used on BDs/HD-DVDs
Duration : 1 h 49 min
Bit rate : 35.2 kb/s
Count of elements : 3236
Stream size : 27.5 MiB (0%)
Language : Icelandic
Default : No
Forced : No

Text #37
ID : 40
Format : PGS
Muxing mode : zlib
Codec ID : S_HDMV/PGS
Codec ID/Info : Picture based subtitle format used on BDs/HD-DVDs
Duration : 1 h 49 min
Bit rate : 35.8 kb/s
Count of elements : 3418
Stream size : 28.0 MiB (0%)
Language : Italian
Default : No
Forced : No

Text #38
ID : 41
Format : PGS
Muxing mode : zlib
Codec ID : S_HDMV/PGS
Codec ID/Info : Picture based subtitle format used on BDs/HD-DVDs
Duration : 1 h 45 min
Bit rate : 24.3 kb/s
Count of elements : 3110
Stream size : 18.3 MiB (0%)
Language : Japanese
Default : No
Forced : No

Text #39
ID : 42
Format : PGS
Muxing mode : zlib
Codec ID : S_HDMV/PGS
Codec ID/Info : Picture based subtitle format used on BDs/HD-DVDs
Duration : 1 h 49 min
Bit rate : 25.0 kb/s
Count of elements : 3186
Stream size : 19.5 MiB (0%)
Language : Korean
Default : No
Forced : No

Text #40
ID : 43
Format : PGS
Muxing mode : zlib
Codec ID : S_HDMV/PGS
Codec ID/Info : Picture based subtitle format used on BDs/HD-DVDs
Duration : 1 h 49 min
Bit rate : 28.8 kb/s
Count of elements : 2684
Stream size : 22.5 MiB (0%)
Language : Norwegian
Default : No
Forced : No

Text #41
ID : 44
Format : PGS
Muxing mode : zlib
Codec ID : S_HDMV/PGS
Codec ID/Info : Picture based subtitle format used on BDs/HD-DVDs
Duration : 1 h 49 min
Bit rate : 29.0 kb/s
Count of elements : 2798
Stream size : 22.7 MiB (0%)
Language : Polish
Default : No
Forced : No

Text #42
ID : 45
Format : PGS
Muxing mode : zlib
Codec ID : S_HDMV/PGS
Codec ID/Info : Picture based subtitle format used on BDs/HD-DVDs
Duration : 1 h 49 min
Bit rate : 34.8 kb/s
Count of elements : 3260
Stream size : 27.3 MiB (0%)
Title : Brazilian
Language : Portuguese
Default : No
Forced : No

Text #43
ID : 46
Format : PGS
Muxing mode : zlib
Codec ID : S_HDMV/PGS
Codec ID/Info : Picture based subtitle format used on BDs/HD-DVDs
Duration : 1 h 49 min
Bit rate : 34.7 kb/s
Count of elements : 3254
Stream size : 27.1 MiB (0%)
Title : Iberian
Language : Portuguese
Default : No
Forced : No

Text #44
ID : 47
Format : PGS
Muxing mode : zlib
Codec ID : S_HDMV/PGS
Codec ID/Info : Picture based subtitle format used on BDs/HD-DVDs
Duration : 1 h 49 min
Bit rate : 32.7 kb/s
Count of elements : 2978
Stream size : 25.6 MiB (0%)
Language : Romanian
Default : No
Forced : No

Text #45
ID : 48
Format : PGS
Muxing mode : zlib
Codec ID : S_HDMV/PGS
Codec ID/Info : Picture based subtitle format used on BDs/HD-DVDs
Duration : 1 h 49 min
Bit rate : 34.2 kb/s
Count of elements : 3276
Stream size : 26.7 MiB (0%)
Language : Russian
Default : No
Forced : No

Text #46
ID : 49
Format : PGS
Muxing mode : zlib
Codec ID : S_HDMV/PGS
Codec ID/Info : Picture based subtitle format used on BDs/HD-DVDs
Duration : 1 h 49 min
Bit rate : 34.5 kb/s
Count of elements : 3284
Stream size : 27.0 MiB (0%)
Language : Slovak
Default : No
Forced : No

Text #47
ID : 50
Format : PGS
Muxing mode : zlib
Codec ID : S_HDMV/PGS
Codec ID/Info : Picture based subtitle format used on BDs/HD-DVDs
Duration : 1 h 49 min
Bit rate : 32.9 kb/s
Count of elements : 3014
Stream size : 25.8 MiB (0%)
Title : Castilian
Language : Spanish
Default : No
Forced : No

Text #48
ID : 51
Format : PGS
Muxing mode : zlib
Codec ID : S_HDMV/PGS
Codec ID/Info : Picture based subtitle format used on BDs/HD-DVDs
Duration : 1 h 49 min
Bit rate : 35.0 kb/s
Count of elements : 3248
Stream size : 27.4 MiB (0%)
Title : Latin American
Language : Spanish
Default : No
Forced : No

Text #49
ID : 52
Format : PGS
Muxing mode : zlib
Codec ID : S_HDMV/PGS
Codec ID/Info : Picture based subtitle format used on BDs/HD-DVDs
Duration : 1 h 49 min
Bit rate : 29.1 kb/s
Count of elements : 2012
Stream size : 22.8 MiB (0%)
Language : Swedish
Default : No
Forced : No

Text #50
ID : 53
Format : PGS
Muxing mode : zlib
Codec ID : S_HDMV/PGS
Codec ID/Info : Picture based subtitle format used on BDs/HD-DVDs
Duration : 1 h 49 min
Bit rate : 36.9 kb/s
Count of elements : 3284
Stream size : 28.9 MiB (0%)
Language : Thai
Default : No
Forced : No

Text #51
ID : 54
Format : PGS
Muxing mode : zlib
Codec ID : S_HDMV/PGS
Codec ID/Info : Picture based subtitle format used on BDs/HD-DVDs
Duration : 1 h 49 min
Bit rate : 34.4 kb/s
Count of elements : 3260
Stream size : 26.9 MiB (0%)
Language : Turkish
Default : No
Forced : No

Menu
00:00:00.000 : en:Chapter 01
00:12:39.000 : en:Chapter 02
00:20:00.000 : en:Chapter 03
00:29:04.000 : en:Chapter 04
00:39:36.000 : en:Chapter 05
00:49:12.000 : en:Chapter 06
01:01:14.000 : en:Chapter 07
01:10:15.000 : en:Chapter 08
01:19:14.000 : en:Chapter 09
01:32:04.000 : en:Chapter 10
01:37:56.000 : en:Chapter 11
01:45:52.000 : en:Chapter 12

资源速度为零或资源敏感被和谐时,推荐使用qBittorrent等下载软件,有条件的推荐115更好的下载软件!

下载地址


游客,如果您要查看本帖隐藏内容请回复

游客,如果您要查看本帖隐藏内容请回复

游客,如果您要查看本帖隐藏内容请回复


以往链接(无中字版本)
游客,如果您要查看本帖隐藏内容请回复



.

上一篇:朱迪 / Judy (2019) 4K高清版本下载
下一篇:遗失的环节 / Missing Link (2019) 4K高清版本下载
回复

使用道具 举报

2

主题

1663

帖子

4629

积分

4K家园VIP

Rank: 9Rank: 9Rank: 9

积分
4629
发表于 2022-5-3 10:32:43 | 显示全部楼层
4K家园资源不错,前排支持
回复 支持 反对

使用道具 举报

0

主题

3

帖子

15

积分

新手上路

Rank: 1

积分
15
发表于 2022-5-3 23:57:43 | 显示全部楼层

谢谢分享
回复

使用道具 举报

5

主题

1489

帖子

4311

积分

4K家园VIP

Rank: 9Rank: 9Rank: 9

积分
4311
发表于 2022-5-6 19:28:18 | 显示全部楼层
撸过
回复 支持 反对

使用道具 举报

2

主题

1367

帖子

3921

积分

4K家园VIP

Rank: 9Rank: 9Rank: 9

积分
3921
发表于 2022-5-8 00:45:59 | 显示全部楼层
垃圾
回复 支持 反对

使用道具 举报

48

主题

1525

帖子

4447

积分

4K家园VIP

Rank: 9Rank: 9Rank: 9

积分
4447
发表于 2022-5-11 21:22:48 | 显示全部楼层
顶起顶起顶起
回复 支持 反对

使用道具 举报

2

主题

1415

帖子

4218

积分

4K家园VIP

Rank: 9Rank: 9Rank: 9

积分
4218
发表于 4 天前 | 显示全部楼层
啊啊啊啊啊啊啊啊啊啊啊
回复 支持 反对

使用道具 举报

您需要登录后才可以回帖 登录 | 立即注册

本版积分规则

精彩图文
Archiver|手机版|TAG|Sitemap|新帖|专题|联系我们:邮箱: 4kjia.com@gmail.com   

4k家园   ©2019