[4K电影] 遗失的环节 / Missing Link (2019) 4K高清版本下载

[复制链接]

1735

主题

1868

帖子

1万

积分

超级版主

Rank: 8Rank: 8

积分
14105
 楼主| 发表于 2022-5-3 11:10:58 | 显示全部楼层 |阅读模式
本帖最后由 最爱4K哟 于 2022-5-3 12:06 编辑

QQ图片20220503115809_副本.png

◎译  名 遗失的环节 / 大冒险家(台) / 缺少环节
◎片  名 Missing Link
◎年  代 2019
◎产  地 美国
◎类  别 动画 / 冒险
◎语  言 英语
◎上映日期 2019-04-12(美国)
◎IMDb评分  6.7/10 from 25413 users
◎IMDb链接  https://www.imdb.com/title/tt6348138
◎豆瓣评分 6.8/10 from 5438 users
◎豆瓣链接 https://movie.douban.com/subject/30216460/
◎片  长 95分钟
◎导  演 克里斯·巴特勒 Chris Butler
◎编  剧 克里斯·巴特勒 Chris Butler
◎主  演 休·杰克曼 Hugh Jackman
       佐伊·索尔达娜 Zoe Saldana
       艾玛·汤普森 Emma Thompson
       扎克·加利凡纳基斯 Zach Galifianakis
       蒂莫西·奥利芬特 Timothy Olyphant
       爱丽达·阿察瑞儿 Amrita Acharia
       马特·卢卡斯 Matt Lucas
       斯蒂芬·弗雷 Stephen Fry
       大卫·威廉姆斯 David Walliams
       吉恩·吉尔平 Jean Gilpin
       布里奇特·霍夫曼 Bridget Hoffman
       尼尔·迪克森 Neil Dickson



◎简  介  

  莱昂内尔·弗罗斯特爵士(休叔)认为自己是世界上最杰出的神话和怪物调查员,为了获得探险精英的认可,他前往美国西北太平洋地区以证明一种传说中生物Mr. Link(扎克)的存在,这是原始人类和现代人类之间缺失的一环。随后弗罗斯特、Link和探险家Adelina Fortnight(佐伊)踏上了寻找Link远亲的冒险之路。

◎获奖情况  

  第92届奥斯卡金像奖(2020)
  最佳动画长片(提名)

  第77届金球奖(2020)
  电影类 最佳动画长片

  第47届动画安妮奖(2020)
  最佳动画长片(提名)
  最佳导演(提名) 克里斯·巴特勒
  最佳剪辑(提名) 史蒂芬·帕金斯
  最佳分镜(提名) 朱利安·纳里诺 / 奥利弗·托马斯
  最佳艺术指导(提名) 圣地亚哥·蒙蒂尔 / 特雷弗·达默 / 纳尔逊·洛瑞
  最佳动画角色(提名)
  最佳动画效果(提名)

  第31届美国制片人工会奖(2020)
  最佳动画片制片人奖(提名)

  第67届美国音效剪辑协会奖(2020)
  金卷轴奖 最佳动画片音效剪辑(提名)

  第18届美国视觉效果协会奖(2020)
  最佳动画电影视觉效果
  最佳动画电影CG动画角色
  最佳动画电影CG背景(提名)
  最佳电影模型(提名)

  第25届美国评论家选择电影奖(2020)
  最佳动画片(提名)

  第32届芝加哥影评人协会奖(2019)
  最佳动画片(提名)

  第23届美国在线影评人协会奖(2020)
  最佳动画片(提名)

Video
ID : 1
Format : HEVC
Format/Info : High Efficiency Video Coding
Format profile : Main 10@L5@High
HDR format : Dolby Vision, Version 1.0, dvhe.05.06, BL+RPU
Codec ID : V_MPEGH/ISO/HEVC
Duration : 1 h 34 min
Bit rate : 14.3 Mb/s
Width : 3 840 pixels
Height : 2 160 pixels
Display aspect ratio : 16:9
Frame rate mode : Constant
Frame rate : 23.976 (24000/1001) FPS
Color space : YUV
Chroma subsampling : 4:2:0
Bit depth : 10 bits
Bits/(Pixel*Frame) : 0.072
Stream size : 9.45 GiB (58%)
Default : Yes
Forced : No

Audio #1
ID : 2
Format : MLP FBA 16-ch
Format/Info : Meridian Lossless Packing FBA with 16-channel presentation
Commercial name : Dolby TrueHD with Dolby Atmos
Codec ID : A_TRUEHD
Duration : 1 h 34 min
Bit rate mode : Variable
Bit rate : 4 727 kb/s
Maximum bit rate : 8 430 kb/s
Channel(s) : 8 channels
Channel layout : L R C LFE Ls Rs Lb Rb
Sampling rate : 48.0 kHz
Frame rate : 1 200.000 FPS (40 SPF)
Compression mode : Lossless
Delay relative to video : 1 s 0 ms
Stream size : 3.12 GiB (19%)
Title : TrueHD 7.1 Atmos
Language : English
Default : Yes
Forced : No
Number of dynamic objects : 13
Bed channel count : 1 channel
Bed channel configuration : LFE

Audio #2
ID : 3
Format : DTS XLL
Format/Info : Digital Theater Systems
Commercial name : DTS-HD Master Audio
Codec ID : A_DTS
Duration : 1 h 34 min
Bit rate mode : Variable
Bit rate : 4 122 kb/s
Channel(s) : 8 channels
Channel layout : C L R LFE Lb Rb Lss Rss
Sampling rate : 48.0 kHz
Frame rate : 93.750 FPS (512 SPF)
Bit depth : 24 bits
Compression mode : Lossless
Delay relative to video : 1 s 0 ms
Stream size : 2.72 GiB (17%)
Title : DTS-HD MA 7.1
Language : English
Default : No
Forced : No

Audio #3
ID : 4
Format : AC-3
Format/Info : Audio Coding 3
Commercial name : Dolby Digital
Codec ID : A_AC3
Duration : 1 h 34 min
Bit rate mode : Constant
Bit rate : 640 kb/s
Channel(s) : 6 channels
Channel layout : L R C LFE Ls Rs
Sampling rate : 48.0 kHz
Frame rate : 31.250 FPS (1536 SPF)
Compression mode : Lossy
Delay relative to video : 1 s 0 ms
Stream size : 432 MiB (3%)
Title : DD 5.1
Language : English
Service kind : Complete Main
Default : No
Forced : No

Audio #4
ID : 5
Format : E-AC-3 JOC
Format/Info : Enhanced AC-3 with Joint Object Coding
Commercial name : Dolby Digital Plus with Dolby Atmos
Codec ID : A_EAC3
Duration : 1 h 34 min
Bit rate mode : Constant
Bit rate : 768 kb/s
Channel(s) : 6 channels
Channel layout : L R C LFE Ls Rs
Sampling rate : 48.0 kHz
Frame rate : 31.250 FPS (1536 SPF)
Compression mode : Lossy
Stream size : 519 MiB (3%)
Language : English
Service kind : Complete Main
Default : Yes
Forced : No
Complexity index : 16
Number of dynamic objects : 15
Bed channel count : 1 channel
Bed channel configuration : LFE

Text #1
ID : 6
Format : UTF-8
Codec ID : S_TEXT/UTF8
Codec ID/Info : UTF-8 Plain Text
Duration : 8 s 50 ms
Bit rate : 140 b/s
Count of elements : 5
Stream size : 141 Bytes (0%)
Title : English Forced
Language : English
Default : No
Forced : Yes

Text #2
ID : 7
Format : UTF-8
Codec ID : S_TEXT/UTF8
Codec ID/Info : UTF-8 Plain Text
Duration : 1 h 34 min
Bit rate : 66 b/s
Count of elements : 1630
Stream size : 46.0 KiB (0%)
Title : English CC
Language : English
Default : Yes
Forced : No

Text #3
ID : 8
Format : UTF-8
Codec ID : S_TEXT/UTF8
Codec ID/Info : UTF-8 Plain Text
Duration : 1 h 33 min
Bit rate : 51 b/s
Count of elements : 1167
Stream size : 35.1 KiB (0%)
Title : Spanish Latin American
Language : Spanish
Default : No
Forced : No

Text #4
ID : 9
Format : UTF-8
Codec ID : S_TEXT/UTF8
Codec ID/Info : UTF-8 Plain Text
Duration : 1 h 33 min
Bit rate : 57 b/s
Count of elements : 1170
Stream size : 39.4 KiB (0%)
Title : French Canadian
Language : French
Default : No
Forced : No

Text #5
ID : 10
Format : PGS
Muxing mode : zlib
Codec ID : S_HDMV/PGS
Codec ID/Info : Picture based subtitle format used on BDs/HD-DVDs
Duration : 8 s 50 ms
Bit rate : 56.2 kb/s
Count of elements : 10
Stream size : 55.2 KiB (0%)
Title : English-FORCED-PGS
Language : English
Default : No
Forced : No

Text #6
ID : 11
Format : PGS
Muxing mode : zlib
Codec ID : S_HDMV/PGS
Codec ID/Info : Picture based subtitle format used on BDs/HD-DVDs
Duration : 1 h 34 min
Bit rate : 41.3 kb/s
Count of elements : 3270
Stream size : 27.9 MiB (0%)
Title : English-PGS
Language : English
Default : No
Forced : No

Text #7
ID : 12
Format : PGS
Muxing mode : zlib
Codec ID : S_HDMV/PGS
Codec ID/Info : Picture based subtitle format used on BDs/HD-DVDs
Duration : 1 h 33 min
Bit rate : 32.1 kb/s
Count of elements : 2334
Stream size : 21.4 MiB (0%)
Title : Spanish-PGS
Language : Spanish
Default : No
Forced : No

Menu
00:00:00.000 : en:Chapter 01
00:05:13.521 : en:Chapter 02
00:08:54.617 : en:Chapter 03
00:12:30.208 : en:Chapter 04
00:15:36.853 : en:Chapter 05
00:20:19.552 : en:Chapter 06
00:24:27.842 : en:Chapter 07
00:29:56.129 : en:Chapter 08
00:33:15.662 : en:Chapter 09
00:36:41.951 : en:Chapter 10
00:40:34.392 : en:Chapter 11
00:43:46.167 : en:Chapter 12
00:47:25.303 : en:Chapter 13
00:52:51.880 : en:Chapter 14
00:55:15.482 : en:Chapter 15
00:58:52.907 : en:Chapter 16
01:00:00.725 : en:Chapter 17
01:02:55.734 : en:Chapter 18
01:05:16.499 : en:Chapter 19
01:08:18.181 : en:Chapter 20
01:11:01.344 : en:Chapter 21
01:13:21.443 : en:Chapter 22
01:21:52.203 : en:Chapter 23
01:24:49.631 : en:Chapter 24

资源速度为零或资源敏感被和谐时,推荐使用qBittorrent等下载软件,有条件的推荐115更好的下载软件!

下载地址


游客,如果您要查看本帖隐藏内容请回复

游客,如果您要查看本帖隐藏内容请回复

游客,如果您要查看本帖隐藏内容请回复



.

上一篇:遇见你之前 (内封简繁中字) / Me Before You (2016) 4K高清版本下载
下一篇:[90届奥斯卡] 灾难艺术家/The Disaster Artist (2017) 4K高清版本下载
回复

使用道具 举报

1

主题

1203

帖子

3631

积分

4K家园VIP

Rank: 9Rank: 9Rank: 9

积分
3631
发表于 2022-5-3 11:11:02 来自手机 | 显示全部楼层
我只是看看啊,不说话
回复 支持 反对

使用道具 举报

0

主题

65

帖子

154

积分

新手上路

Rank: 1

积分
154
发表于 2022-5-3 16:17:07 | 显示全部楼层
遗失的环节 / Missing Link (2019) 4K高清版本下载 [修改]
高级模式
回复 支持 反对

使用道具 举报

55

主题

1525

帖子

4407

积分

4K家园VIP

Rank: 9Rank: 9Rank: 9

积分
4407
发表于 2022-5-3 17:40:00 来自手机 | 显示全部楼层
4K电影下个试试
回复 支持 反对

使用道具 举报

2

主题

1348

帖子

3880

积分

4K家园VIP

Rank: 9Rank: 9Rank: 9

积分
3880
发表于 2022-5-5 16:11:17 来自手机 | 显示全部楼层
这么强,支持楼主,佩服
回复 支持 反对

使用道具 举报

0

主题

65

帖子

472

积分

新手上路

Rank: 1

积分
472
发表于 2022-5-5 17:48:25 | 显示全部楼层
这部动画还不错,谢谢分享~!
回复 支持 反对

使用道具 举报

3

主题

1607

帖子

4417

积分

4K家园VIP

Rank: 9Rank: 9Rank: 9

积分
4417
发表于 2022-5-6 09:10:11 | 显示全部楼层
撸过
回复 支持 反对

使用道具 举报

57

主题

1461

帖子

4219

积分

4K家园VIP

Rank: 9Rank: 9Rank: 9

积分
4219
发表于 2022-5-8 02:23:21 | 显示全部楼层
路过
回复 支持 反对

使用道具 举报

您需要登录后才可以回帖 登录 | 立即注册

本版积分规则

精彩图文
Archiver|手机版|TAG|Sitemap|新帖|专题|联系我们:邮箱: 4kjia.com@gmail.com   

4k家园   ©2019