[4K电影] [90届奥斯卡] 灾难艺术家/The Disaster Artist (2017) 4K高清版本下载

[复制链接]

1723

主题

1856

帖子

1万

积分

超级版主

Rank: 8Rank: 8

积分
14024
 楼主| 发表于 2022-5-3 11:17:50 | 显示全部楼层 |阅读模式
本帖最后由 最爱4K哟 于 2022-5-3 12:05 编辑

QQ图片20220503115903_副本.png
◎译  名 灾难艺术家/The Masterpiece/大灾难家(台)/荷里活烂片王(港)
◎片  名 The Disaster Artist
◎年  代 2017
◎产  地 美国
◎类  别 剧情 / 喜剧 / 传记
◎语  言 英语
◎上映日期 2017-09-11(多伦多电影节) / 2017-12-08(美国)
◎IMDb评分  7.3/10 from 150496 users
◎IMDb链接 https://www.imdb.com/title/tt3521126/
◎豆瓣评分 7.5/10 from 47472 users
◎豆瓣链接 https://movie.douban.com/subject/25944886/
◎片  长 103分钟
◎导  演 詹姆斯·弗兰科 James Franco
◎编  剧 斯科特·纽斯塔德 Scott Neustadter / 迈克尔·H·韦伯 Michael H. Weber / 格雷戈·赛斯特罗 Greg Sestero / 汤姆·比塞尔 Tom Bissell
◎主  演 詹姆斯·弗兰科 James Franco
       戴夫·弗兰科 Dave Franco
       塞斯·罗根 Seth Rogen
       艾莉·葛瑞那 Ari Graynor
       爱丽森·布里 Alison Brie
       杰基·韦佛 Jacki Weaver
       保罗·谢尔 Paul Scheer
       扎克·埃夫隆 Zac Efron
       乔什·哈切森 Josh Hutcherson
       琼·黛安·拉斐尔 June Diane Raphael
       梅根·莫拉莉 Megan Mullally
       杰森·曼楚克斯 Jason Mantzoukas
       安德鲁·桑提诺 Andrew Santino
       内森·菲尔德 Nathan Fielder
       乔·曼德 Joe Mande
       莎朗·斯通 Sharon Stone
       约翰·厄尔利 John Early
       梅兰尼·格里菲斯 Melanie Griffith
       汉尼拔·布勒斯 Hannibal Buress
       查琳·易 Charlyne Yi
       彼得·吉尔罗伊 Peter Gilroy
       劳伦·阿什 Lauren Ash
       舒格·林·彼尔德 Sugar Lyn Beard
       鲍勃·奥登科克 Bob Odenkirk
       布莱恩·赫斯基 Brian Huskey
       梅根·弗格森 Megan Ferguson
       兰道尔·朴 Randall Park
       斯蒂芬·刘 Steven Liu
       凯西·威尔逊 Casey Wilson
       杰洛德·卡尔迈克 Jerrod Carmichael
       豪莎·罗克莫雷 Xosha Roquemore
       凯莉·奥克斯福德 Kelly Oxford
       凯瑟·多诺休 Kether Donohue
       德丽·海明威 Dree Hemingway
       安吉琳 Angelyne
       汤姆·佛朗哥 Tom Franco
       佐伊·达奇 Zoey Deutch
       伊克·巴里霍尔兹 Ike Barinholtz
       凯文·史密斯 Kevin Smith
       J·J·艾布拉姆斯 J.J. Abrams
       科甘-迈克尔·凯 Keegan-Michael Key
       亚当·斯科特 Adam Scott
       丹尼·麦克布莱德 Danny McBride
       克里斯汀·贝尔 Kristen Bell
       贾德·阿帕图 Judd Apatow
       丽兹·卡潘 Lizzy Caplan
       托米·韦素 Tommy Wiseau
       布莱恩·科兰斯顿 Bryan Cranston
       扎克·布拉夫 Zach Braff
       都铎·蒙特亚努 Tudor Munteanu


◎简  介

  詹姆斯·弗兰科从去年起就计划将邪典电影《房间》的拍摄过程搬上银幕,近日该片不仅确定了片名《灾难艺术家》(The Disaster Artist),还找来了以投拍发行恐怖电影为主的新线影业做接盘侠。

  2003年上映的《房间》是托米·韦素自编自导自演的一部邪典电影,该片被很多人视作最烂电影之一。不过,影片完全烂出了风格与境界,甚至被称为“烂片界的《公民凯恩》”。影片基本上就是围绕着托米·韦素饰演的主人公与他的未婚妻以及最好朋友之间的三角恋情展开,无论是演员的渣演技、剧情的神转折还是毫无美感的运镜都让人印象深刻。2013年,参演《房间》的演员之一格雷·戈泽斯特洛和汤姆·比塞尔联合出版了《灾难艺术家》,回顾了该片的拍摄过程。戈泽斯特洛在书中写到,托米·韦素在开拍此片时完全没有任何电影制作经验。

  弗兰兰在担任该片导演的同时,还会出演托米·韦素,他的弟弟戴夫·弗兰科则会出演格雷·戈泽斯特洛。弗兰兰的好基友塞斯·罗根在担任影片制片的同时还在协商加盟演出,另外担任制片的还包括埃文·戈登伯格、Vince Jolivette以及弗兰兰自己。小清新爱情片《星运里的错》和《好景当前》的编剧斯考特·诺伊施塔特和迈克尔·H·韦伯已为影片执笔剧本。影片定于今年12月7日开拍。

◎获奖情况

  第90届奥斯卡金像奖 ?(2018)
  最佳改编剧本(提名) 迈克尔·H·韦伯?/?斯科特·纽斯塔德

  第75届金球奖 ?(2018)
  电影类最佳音乐/喜剧片(提名)
  电影类音乐/喜剧片最佳男主角 詹姆斯·弗兰科

  第42届多伦多国际电影节 ?(2017)
  观众选择奖午夜疯狂单元(提名)

  第65届圣塞巴斯蒂安国际电影节 ?(2017)
  金贝壳奖 詹姆斯·弗兰科

  第24届美国演员工会奖 ?(2018)
  电影奖最佳男主角(提名) 詹姆斯·弗兰科

  第70届美国编剧工会奖 ?(2018)
  电影奖最佳改编剧本(提名) 迈克尔·H·韦伯?/?斯科特·纽斯塔德

  第89届美国国家评论协会奖 ?(2017)
  最佳改编剧本 迈克尔·H·韦伯?/?斯科特·纽斯塔德
  年度佳片

  第23届美国评论家选择电影奖 ?(2018)
  最佳男主角(提名) 詹姆斯·弗兰科
  最佳喜剧片(提名)
  喜剧片最佳男主角 詹姆斯·弗兰科
  最佳改编剧本(提名) 迈克尔·H·韦伯?/?斯科特·纽斯塔德

  第33届美国独立精神奖 ?(2018)
  最佳男主角(提名) 詹姆斯·弗兰科

  第27届哥谭独立电影奖 ?(2017)
  最佳男演员 詹姆斯·弗兰科

  第22届金卫星奖 ?(2018)
  电影部门剧情片最佳男主角(提名) 詹姆斯·弗兰科
  电影部门最佳改编剧本 迈克尔·H·韦伯?/?斯科特·纽斯塔德

  第21届好莱坞电影奖 ?(2017)
  年度编剧 迈克尔·H·韦伯?/?斯科特·纽斯塔德

  第30届芝加哥影评人协会奖 ?(2017)
  最佳男主角(提名) 詹姆斯·弗兰科
  最佳改编剧本(提名) 迈克尔·H·韦伯?/?斯科特·纽斯塔德

  第21届美国在线影评人协会奖 ?(2017)
  最佳男主角(提名) 詹姆斯·弗兰科
  最佳改编剧本(提名) 迈克尔·H·韦伯?/?斯科特·纽斯塔德

  第5届豆瓣电影年度榜单 ?(2018)
  评分最高的喜剧片(提名)

  第4届豆瓣电影年度榜单 ?(2017)
  2017-2018北美颁奖季热门佳片(提名)

Video
ID : 1
Format : HEVC
Format/Info : High Efficiency Video Coding
Format profile : Main 10@L5@High
HDR format : SMPTE ST 2086, HDR10 compatible
Codec ID : V_MPEGH/ISO/HEVC
Duration : 1 h 43 min
Bit rate : 14.5 Mb/s
Width : 3 840 pixels
Height : 1 596 pixels
Display aspect ratio : 2.40:1
Frame rate mode : Constant
Frame rate : 23.976 FPS
Color space : YUV
Chroma subsampling : 4:2:0 (Type 2)
Bit depth : 10 bits
Bits/(Pixel*Frame) : 0.099
Stream size : 10.5 GiB (75%)
Default : Yes
Forced : No
Color range : Limited
Color primaries : BT.2020
Transfer characteristics : PQ
Matrix coefficients : BT.2020 non-constant
Mastering display color primaries : Display P3
Mastering display luminance : min: 0.0050 cd/m2, max: 1000 cd/m2
Maximum Content Light Level : 859 cd/m2
Maximum Frame-Average Light Level : 203 cd/m2

Audio #1
ID : 2
Format : MLP FBA
Format/Info : Meridian Lossless Packing FBA
Commercial name : Dolby TrueHD
Codec ID : A_TRUEHD
Duration : 1 h 43 min
Bit rate mode : Variable
Bit rate : 3 664 kb/s
Maximum bit rate : 4 728 kb/s
Channel(s) : 8 channels
Channel layout : L R C LFE Ls Rs Lb Rb
Sampling rate : 48.0 kHz
Frame rate : 1 200.000 FPS (40 SPF)
Compression mode : Lossless
Stream size : 2.66 GiB (19%)
Title : TrueHD 7.1
Language : English
Default : Yes
Forced : No

Audio #2
ID : 3
Format : AC-3
Format/Info : Audio Coding 3
Commercial name : Dolby Digital
Codec ID : A_AC3
Duration : 1 h 43 min
Bit rate mode : Constant
Bit rate : 640 kb/s
Channel(s) : 6 channels
Channel layout : L R C LFE Ls Rs
Sampling rate : 48.0 kHz
Frame rate : 31.250 FPS (1536 SPF)
Compression mode : Lossy
Stream size : 475 MiB (3%)
Title : DD 5.1
Language : English
Service kind : Complete Main
Default : No
Forced : No

Audio #3
ID : 4
Format : AC-3
Format/Info : Audio Coding 3
Commercial name : Dolby Digital
Codec ID : A_AC3
Duration : 1 h 43 min
Bit rate mode : Constant
Bit rate : 384 kb/s
Channel(s) : 6 channels
Channel layout : L R C LFE Ls Rs
Sampling rate : 48.0 kHz
Frame rate : 31.250 FPS (1536 SPF)
Compression mode : Lossy
Stream size : 285 MiB (2%)
Language : English
Service kind : Complete Main
Default : Yes
Forced : No

Text #1
ID : 5
Format : UTF-8
Codec ID : S_TEXT/UTF8
Codec ID/Info : UTF-8 Plain Text
Duration : 1 h 43 min
Bit rate : 95 b/s
Count of elements : 2239
Stream size : 72.5 KiB (0%)
Title : English CC
Language : English
Default : Yes
Forced : No

Text #2
ID : 6
Format : PGS
Muxing mode : zlib
Codec ID : S_HDMV/PGS
Codec ID/Info : Picture based subtitle format used on BDs/HD-DVDs
Duration : 1 h 42 min
Bit rate : 65.6 kb/s
Count of elements : 4010
Stream size : 48.1 MiB (0%)
Title : English-PGS
Language : English
Default : No
Forced : No

Text #3
ID : 7
Format : PGS
Muxing mode : zlib
Codec ID : S_HDMV/PGS
Codec ID/Info : Picture based subtitle format used on BDs/HD-DVDs
Duration : 1 h 42 min
Bit rate : 50.6 kb/s
Count of elements : 3739
Stream size : 37.1 MiB (0%)
Title : Spanish-PGS
Language : Spanish
Default : No
Forced : No

Menu
00:00:00.000 : en:Chapter 01
00:10:57.657 : en:Chapter 02
00:24:29.302 : en:Chapter 03
00:35:54.696 : en:Chapter 04
00:47:53.415 : en:Chapter 05
00:58:26.214 : en:Chapter 06
01:07:01.604 : en:Chapter 07
01:17:00.954 : en:Chapter 08
01:28:45.492 : en:Chapter 09
01:34:59.115 : en:Chapter 10
01:37:54.165 : en:Chapter 11

资源速度为零或资源敏感被和谐时,推荐使用qBittorrent等下载软件,有条件的推荐115更好的下载软件!

下载地址


游客,如果您要查看本帖隐藏内容请回复


.


上一篇:遗失的环节 / Missing Link (2019) 4K高清版本下载
下一篇:玻璃城堡 / The Glass Castle (2017) 4K高清版本下载
回复

使用道具 举报

4

主题

1655

帖子

4565

积分

4K家园VIP

Rank: 9Rank: 9Rank: 9

积分
4565
发表于 2022-5-3 11:17:55 来自手机 | 显示全部楼层
垃圾内容,路过为证。
回复 支持 反对

使用道具 举报

48

主题

1537

帖子

4421

积分

4K家园VIP

Rank: 9Rank: 9Rank: 9

积分
4421
发表于 2022-5-7 02:35:06 | 显示全部楼层
发发呆,回回帖,工作结束~
回复 支持 反对

使用道具 举报

59

主题

1559

帖子

4473

积分

4K家园VIP

Rank: 9Rank: 9Rank: 9

积分
4473
发表于 2022-5-7 09:19:18 | 显示全部楼层
前排支持下
回复 支持 反对

使用道具 举报

55

主题

1467

帖子

4259

积分

4K家园VIP

Rank: 9Rank: 9Rank: 9

积分
4259
发表于 2022-5-9 10:16:30 来自手机 | 显示全部楼层
高手啊
回复 支持 反对

使用道具 举报

6

主题

1644

帖子

4520

积分

中级会员

Rank: 4

积分
4520
发表于 2022-5-10 16:04:44 | 显示全部楼层
有空一起交流一下
回复 支持 反对

使用道具 举报

您需要登录后才可以回帖 登录 | 立即注册

本版积分规则

精彩图文
Archiver|手机版|TAG|Sitemap|新帖|专题|联系我们:邮箱: 4kjia.com@gmail.com   

4k家园   ©2019