[4K电影] 双虎屠龙/The.Man.Who.Shot.Liberty.Valance (1962) 4K高清版本下载

[复制链接]

1701

主题

1834

帖子

1万

积分

超级版主

Rank: 8Rank: 8

积分
13887
 楼主| 发表于 2022-5-3 11:50:58 | 显示全部楼层 |阅读模式
本帖最后由 最爱4K哟 于 2022-5-3 12:03 编辑

QQ图片20220503115728_副本.png

◎译  名 双虎屠龙 / 枪杀了理贝特瓦朗斯的人
◎片  名 The Man Who Shot Liberty Valance
◎年  代 1962
◎产  地 美国
◎类  别 剧情 / 爱情 / 西部
◎语  言 英语
◎上映日期 1962-04-22
◎IMDb评分  8.1/10 from 74813 users
◎IMDb链接  https://www.imdb.com/title/tt0056217/
◎豆瓣评分 8.2/10 (4209人评价)
◎豆瓣链接 https://movie.douban.com/subject/1295134/
◎片  长 123分钟
◎导  演 约翰·福特 John Ford
◎编  剧 詹姆斯·华纳·贝拉 James Warner Bellah / 威利斯·戈德贝克 Willis Goldbeck
◎演  员 约翰·韦恩 John Wayne
       詹姆斯·斯图尔特 James Stewart
       维拉·迈尔斯 Vera Miles
       李·马文 Lee Marvin
       艾德蒙·奥布莱恩 Edmond O'Brien
       伍迪·斯特罗德 Woody Strode
       李·范·克里夫 Lee Van Cleef
       卡尔·M·莱维尼斯 Carl M. Leviness



◎简  介


  参议员Ransom "Rance" Stoddard(詹姆斯·斯图尔特 James Stewart饰)带着他的妻子Hallie(维拉·迈尔斯 Vera Miles饰)回到一个小镇去参加一个老朋友Tom的葬礼,他们三人的友情还得追溯到多年前......
年轻的律师Ransom在来小镇的路上遭到了一路恶棍的抢劫,恶棍们的头领叫Liberty Valance(李·马文 Lee Marvin 饰)。受伤的Ransom被镇里的一家开餐厅的人收留,认识了开餐厅的夫妇的女儿Hallie,同时也结识了爱着Hallie的Tom(约翰·韦恩 John Wayne饰)。镇上的人民也深受Liberty一伙人所害。Ransom开始运用自己的知识启发当地民众,希望用法律途径来惩罚Liberty。而Tom则一次次劝说Ransom离开小镇。在一次选举上,双方的矛盾达到了最高潮。Ra...

◎获奖情况 (共1项)
  第35届奥斯卡金像奖 (1963)
  黑白片最佳服装设计(提名)
   └──伊迪丝·海德

Video
ID : 1
Format : HEVC
Format/Info : High Efficiency Video Coding
Format profile : Main 10@L5@High
HDR format : Dolby Vision, Version 1.0, dvhe.05.06, BL+RPU
Codec ID : V_MPEGH/ISO/HEVC
Duration : 2 h 3 min
Bit rate : 24.9 Mb/s
Width : 3 840 pixels
Height : 2 076 pixels
Display aspect ratio : 1.85:1
Frame rate mode : Constant
Frame rate : 23.976 (24000/1001) FPS
Color space : YUV
Chroma subsampling : 4:2:0
Bit depth : 10 bits
Bits/(Pixel*Frame) : 0.130
Stream size : 21.4 GiB (86%)
Default : Yes
Forced : No

Audio #1
ID : 2
Format : DTS XLL
Format/Info : Digital Theater Systems
Commercial name : DTS-HD Master Audio
Codec ID : A_DTS
Duration : 2 h 3 min
Bit rate mode : Variable
Bit rate : 3 453 kb/s
Channel(s) : 6 channels
Channel layout : C L R Ls Rs LFE
Sampling rate : 48.0 kHz
Frame rate : 93.750 FPS (512 SPF)
Bit depth : 24 bits
Compression mode : Lossless
Delay relative to video : 10 ms
Stream size : 2.98 GiB (12%)
Title : DTS-HD MA 5.1
Language : English
Default : Yes
Forced : No

Audio #2
ID : 3
Format : AC-3
Format/Info : Audio Coding 3
Commercial name : Dolby Digital
Codec ID : A_AC3
Duration : 2 h 3 min
Bit rate mode : Constant
Bit rate : 384 kb/s
Channel(s) : 6 channels
Channel layout : L R C LFE Ls Rs
Sampling rate : 48.0 kHz
Frame rate : 31.250 FPS (1536 SPF)
Compression mode : Lossy
Stream size : 339 MiB (1%)
Language : English
Service kind : Complete Main
Default : Yes
Forced : No

Text #1
ID : 4
Format : UTF-8
Codec ID : S_TEXT/UTF8
Codec ID/Info : UTF-8 Plain Text
Duration : 2 h 1 min
Bit rate : 56 b/s
Count of elements : 2013
Stream size : 50.3 KiB (0%)
Title : English CC
Language : English
Default : Yes
Forced : No

Text #2
ID : 5
Format : UTF-8
Codec ID : S_TEXT/UTF8
Codec ID/Info : UTF-8 Plain Text
Duration : 2 h 0 min
Bit rate : 45 b/s
Count of elements : 1073
Stream size : 39.8 KiB (0%)
Title : Danish
Language : Danish
Default : No
Forced : No

Text #3
ID : 6
Format : UTF-8
Codec ID : S_TEXT/UTF8
Codec ID/Info : UTF-8 Plain Text
Duration : 2 h 2 min
Bit rate : 50 b/s
Count of elements : 1074
Stream size : 45.8 KiB (0%)
Title : German
Language : German
Default : No
Forced : No

Text #4
ID : 7
Format : UTF-8
Codec ID : S_TEXT/UTF8
Codec ID/Info : UTF-8 Plain Text
Duration : 2 h 0 min
Bit rate : 46 b/s
Count of elements : 1073
Stream size : 41.4 KiB (0%)
Title : Finnish
Language : Finnish
Default : No
Forced : No

Text #5
ID : 8
Format : UTF-8
Codec ID : S_TEXT/UTF8
Codec ID/Info : UTF-8 Plain Text
Duration : 2 h 2 min
Bit rate : 49 b/s
Count of elements : 1074
Stream size : 44.5 KiB (0%)
Title : Italian
Language : Italian
Default : No
Forced : No

Text #6
ID : 9
Format : UTF-8
Codec ID : S_TEXT/UTF8
Codec ID/Info : UTF-8 Plain Text
Duration : 2 h 0 min
Bit rate : 42 b/s
Count of elements : 1073
Stream size : 38.0 KiB (0%)
Title : Dutch
Language : Dutch
Default : No
Forced : No

Text #7
ID : 10
Format : UTF-8
Codec ID : S_TEXT/UTF8
Codec ID/Info : UTF-8 Plain Text
Duration : 2 h 0 min
Bit rate : 48 b/s
Count of elements : 1073
Stream size : 42.7 KiB (0%)
Title : Norwegian
Language : Norwegian
Default : No
Forced : No

Text #8
ID : 11
Format : UTF-8
Codec ID : S_TEXT/UTF8
Codec ID/Info : UTF-8 Plain Text
Duration : 2 h 0 min
Bit rate : 45 b/s
Count of elements : 1073
Stream size : 40.3 KiB (0%)
Title : Swedish
Language : Swedish
Default : No
Forced : No

Text #9
ID : 12
Format : PGS
Muxing mode : zlib
Codec ID : S_HDMV/PGS
Codec ID/Info : Picture based subtitle format used on BDs/HD-DVDs
Duration : 2 h 0 min
Bit rate : 32.5 kb/s
Count of elements : 2638
Stream size : 28.0 MiB (0%)
Language : English
Default : No
Forced : No

Text #10
ID : 13
Format : PGS
Muxing mode : zlib
Codec ID : S_HDMV/PGS
Codec ID/Info : Picture based subtitle format used on BDs/HD-DVDs
Duration : 2 h 1 min
Bit rate : 34.7 kb/s
Count of elements : 2918
Stream size : 30.1 MiB (0%)
Title : SDH
Language : English
Default : No
Forced : No

Text #11
ID : 14
Format : PGS
Muxing mode : zlib
Codec ID : S_HDMV/PGS
Codec ID/Info : Picture based subtitle format used on BDs/HD-DVDs
Duration : 2 h 2 min
Bit rate : 27.0 kb/s
Count of elements : 2150
Stream size : 23.7 MiB (0%)
Language : French
Default : No
Forced : No

Text #12
ID : 15
Format : PGS
Muxing mode : zlib
Codec ID : S_HDMV/PGS
Codec ID/Info : Picture based subtitle format used on BDs/HD-DVDs
Duration : 2 h 2 min
Bit rate : 32.5 kb/s
Count of elements : 2150
Stream size : 28.6 MiB (0%)
Language : German
Default : No
Forced : No

Text #13
ID : 16
Format : PGS
Muxing mode : zlib
Codec ID : S_HDMV/PGS
Codec ID/Info : Picture based subtitle format used on BDs/HD-DVDs
Duration : 2 h 2 min
Bit rate : 30.8 kb/s
Count of elements : 2150
Stream size : 27.1 MiB (0%)
Language : Italian
Default : No
Forced : No

Text #14
ID : 17
Format : PGS
Muxing mode : zlib
Codec ID : S_HDMV/PGS
Codec ID/Info : Picture based subtitle format used on BDs/HD-DVDs
Duration : 2 h 2 min
Bit rate : 30.5 kb/s
Count of elements : 2152
Stream size : 26.8 MiB (0%)
Language : Spanish
Default : No
Forced : No

Text #15
ID : 18
Format : PGS
Muxing mode : zlib
Codec ID : S_HDMV/PGS
Codec ID/Info : Picture based subtitle format used on BDs/HD-DVDs
Duration : 2 h 0 min
Bit rate : 27.4 kb/s
Count of elements : 2148
Stream size : 23.7 MiB (0%)
Language : Dutch
Default : No
Forced : No

Text #16
ID : 19
Format : PGS
Muxing mode : zlib
Codec ID : S_HDMV/PGS
Codec ID/Info : Picture based subtitle format used on BDs/HD-DVDs
Duration : 2 h 0 min
Bit rate : 28.2 kb/s
Count of elements : 2148
Stream size : 24.4 MiB (0%)
Language : Danish
Default : No
Forced : No

Text #17
ID : 20
Format : PGS
Muxing mode : zlib
Codec ID : S_HDMV/PGS
Codec ID/Info : Picture based subtitle format used on BDs/HD-DVDs
Duration : 2 h 0 min
Bit rate : 29.8 kb/s
Count of elements : 2148
Stream size : 25.7 MiB (0%)
Language : Finnish
Default : No
Forced : No

Text #18
ID : 21
Format : PGS
Muxing mode : zlib
Codec ID : S_HDMV/PGS
Codec ID/Info : Picture based subtitle format used on BDs/HD-DVDs
Duration : 2 h 0 min
Bit rate : 30.1 kb/s
Count of elements : 2148
Stream size : 26.1 MiB (0%)
Language : Norwegian
Default : No
Forced : No

Text #19
ID : 22
Format : PGS
Muxing mode : zlib
Codec ID : S_HDMV/PGS
Codec ID/Info : Picture based subtitle format used on BDs/HD-DVDs
Duration : 2 h 0 min
Bit rate : 28.1 kb/s
Count of elements : 2148
Stream size : 24.3 MiB (0%)
Language : Swedish
Default : No
Forced : No

Menu
00:00:00.000 : en:Chapter 01
00:13:11.708 : en:Chapter 02
00:18:19.140 : en:Chapter 03
00:28:52.148 : en:Chapter 04
00:37:12.774 : en:Chapter 05
00:41:40.083 : en:Chapter 06
00:49:57.580 : en:Chapter 07
01:01:09.169 : en:Chapter 08
01:06:56.766 : en:Chapter 09
01:18:27.540 : en:Chapter 10
01:27:42.929 : en:Chapter 11
01:36:18.486 : en:Chapter 12
01:43:43.515 : en:Chapter 13
01:55:39.064 : en:Chapter 14
01:59:00.223 : en:Chapter 15

资源速度为零或资源敏感被和谐时,推荐使用qBittorrent等下载软件,有条件的推荐115更好的下载软件!

下载地址:


游客,如果您要查看本帖隐藏内容请回复

游客,如果您要查看本帖隐藏内容请回复

游客,如果您要查看本帖隐藏内容请回复





上一篇:玻璃城堡 / The Glass Castle (2017) 4K高清版本下载
下一篇:康斯坦丁:神秘之所 (2022) 4k高清版本下载
回复

使用道具 举报

1

主题

1309

帖子

3943

积分

4K家园VIP

Rank: 9Rank: 9Rank: 9

积分
3943
发表于 2022-5-3 11:51:05 | 显示全部楼层
看帖要回,回帖才健康,在踩踩,楼主辛苦了!
回复 支持 反对

使用道具 举报

0

主题

342

帖子

2094

积分

注册会员

Rank: 2

积分
2094
发表于 2022-5-3 13:36:35 | 显示全部楼层
谢谢楼主分享
回复 支持 反对

使用道具 举报

1

主题

1316

帖子

3968

积分

4K家园VIP

Rank: 9Rank: 9Rank: 9

积分
3968
发表于 2022-5-5 13:40:20 来自手机 | 显示全部楼层
楼主这资源不错,我收藏了
回复 支持 反对

使用道具 举报

2

主题

1455

帖子

4201

积分

4K家园VIP

Rank: 9Rank: 9Rank: 9

积分
4201
发表于 2022-5-7 09:27:43 来自手机 | 显示全部楼层
看起来好像不错的样子
回复 支持 反对

使用道具 举报

2

主题

1149

帖子

3467

积分

4K家园VIP

Rank: 9Rank: 9Rank: 9

积分
3467
发表于 2022-5-8 09:50:54 | 显示全部楼层
有4K版卡,下个看下
回复 支持 反对

使用道具 举报

2

主题

1670

帖子

4628

积分

4K家园VIP

Rank: 9Rank: 9Rank: 9

积分
4628
发表于 2022-5-8 22:51:02 来自手机 | 显示全部楼层
看起来不错
回复 支持 反对

使用道具 举报

您需要登录后才可以回帖 登录 | 立即注册

本版积分规则

精彩图文
Archiver|手机版|TAG|Sitemap|新帖|专题|联系我们:邮箱: 4kjia.com@gmail.com   

4k家园   ©2019