[4K电影] 康斯坦丁:神秘之所 (2022) 4k高清版本下载

[复制链接]

主题

帖子

0

积分

超级版主

Rank: 8Rank: 8

积分
0
 楼主| 发表于 2022-5-3 12:40:27 | 显示全部楼层 |阅读模式
本帖最后由 最爱4K哟 于 2022-5-3 12:43 编辑

QQ图片20220503121220_副本.png

◎译  名 康斯坦丁:神秘之所/DC Showcase – Constantine: House of Mystery/DC展台:康斯坦丁
◎片  名 Constantine: House of Mystery
◎年  代 2022
◎产  地 美国
◎类  别 动画
◎语  言 英语
◎IMDb评分  6.2/10 from 64 users
◎IMDb链接  https://www.imdb.com/title/tt18305072/
◎豆瓣评分 0/10 from 0 users
◎豆瓣链接 https://movie.douban.com/subject/35633926/
◎片  长 27分钟
◎导  演 马特·彼得斯 Matt Peters
◎编  剧 厄尼·阿尔特巴克 Ernie Altbacker
◎演  员 雷·蔡斯 Ray Chase
                  罗宾·阿特金·唐斯 Robin Atkin Downes
                  灰格·里芬 Grey Griffin



◎简  介

  这一年还将有DC Showcase–Constantine:House of Unserous的展示,这是一部最新的动画短片汇编,由一个涉及地狱骑士本人的故事作为锚定。”


Video
ID                             : 1
Format                         : HEVC
Format/Info                    : High Efficiency Video Coding
Format profile                 : Main 10@L5@High
HDR format                     : SMPTE ST 2086, HDR10 compatible
Codec ID                       : V_MPEGH/ISO/HEVC
Duration                       : 1 h 16 min
Bit rate                       : 23.8 Mb/s
Width                          : 3 840 pixels
Height                         : 2 160 pixels
Display aspect ratio           : 16:9
Frame rate mode                : Constant
Frame rate                     : 23.976 (24000/1001) FPS
Color space                    : YUV
Chroma subsampling             : 4:2:0 (Type 2)
Bit depth                      : 10 bits
Bits/(Pixel*Frame)             : 0.120
Stream size                    : 12.7 GiB (96%)
Default                        : Yes
Forced                         : No
Color range                    : Limited
Color primaries                : BT.2020
Transfer characteristics       : PQ
Matrix coefficients            : BT.2020 non-constant
Mastering display color primar : BT.2020
Mastering display luminance    : min: 0.0050 cd/m2, max: 1000 cd/m2
Maximum Content Light Level    : 1285 cd/m2
Maximum Frame-Average Light Le : 1037 cd/m2

Audio
ID                             : 2
Format                         : AC-3
Format/Info                    : Audio Coding 3
Commercial name                : Dolby Digital
Codec ID                       : A_AC3
Duration                       : 1 h 16 min
Bit rate mode                  : Constant
Bit rate                       : 384 kb/s
Channel(s)                     : 6 channels
Channel layout                 : L R C LFE Ls Rs
Sampling rate                  : 48.0 kHz
Frame rate                     : 31.250 FPS (1536 SPF)
Compression mode               : Lossy
Stream size                    : 210 MiB (2%)
Language                       : English
Service kind                   : Complete Main
Default                        : Yes
Forced                         : No

资源速度为零或资源敏感被和谐时,推荐使用qBittorrent等下载软件,有条件的推荐115更好的下载软件!

下载地址:


****此区域为收费内容****    需支付 9 金币后可查看立即购买

****此区域为收费内容****    需支付 9 金币后可查看立即购买






上一篇:双虎屠龙/The.Man.Who.Shot.Liberty.Valance (1962) 4K高清版本下载
下一篇:叶卡捷琳娜二世俄版的高清有吗
回复

使用道具 举报

40

主题

1544

帖子

4448

积分

4K家园VIP

Rank: 9Rank: 9Rank: 9

积分
4448
发表于 2022-5-3 12:40:32 | 显示全部楼层
支持,楼下的跟上哈~
回复 支持 反对

使用道具 举报

3

主题

1460

帖子

4206

积分

4K家园VIP

Rank: 9Rank: 9Rank: 9

积分
4206
发表于 2022-5-3 19:50:06 | 显示全部楼层
前排,哇咔咔
回复 支持 反对

使用道具 举报

60

主题

1541

帖子

4479

积分

4K家园VIP

Rank: 9Rank: 9Rank: 9

积分
4479
发表于 2022-5-3 21:07:57 | 显示全部楼层
感谢分享
回复 支持 反对

使用道具 举报

主题

帖子

12

积分

新手上路

Rank: 1

积分
12
发表于 2022-5-3 22:31:26 来自手机 | 显示全部楼层
感谢分享
回复

使用道具 举报

47

主题

1561

帖子

4525

积分

4K家园VIP

Rank: 9Rank: 9Rank: 9

积分
4525
发表于 2022-5-4 19:12:22 来自手机 | 显示全部楼层
看起来不错
回复 支持 反对

使用道具 举报

53

主题

1555

帖子

4532

积分

4K家园VIP

Rank: 9Rank: 9Rank: 9

积分
4532
发表于 2022-5-5 21:31:18 | 显示全部楼层
众里寻他千百度,蓦然回首在这里!
回复 支持 反对

使用道具 举报

51

主题

1626

帖子

4694

积分

4K家园VIP

Rank: 9Rank: 9Rank: 9

积分
4694
发表于 2022-11-9 18:48:39 来自手机 | 显示全部楼层
边撸边过
回复 支持 反对

使用道具 举报

您需要登录后才可以回帖 登录 | 立即注册

本版积分规则

精彩图文
Archiver|手机版|TAG|Sitemap|新帖|专题|联系我们:邮箱: 4kjia.com@gmail.com   

4k家园   ©2019