[4K电影] 莫衣娜阿姨 (内封简繁中字)/ Auntie Edna (2018) 4k高清版本下载

[复制链接]

2325

主题

2474

帖子

1万

积分

超级版主

Rank: 8Rank: 8

积分
17918
 楼主| 发表于 2022-5-4 11:27:21 | 显示全部楼层 |阅读模式
QQ图片20220505030105_副本.png

◎译  名 莫衣娜阿姨/超人总动员2:番外短片
◎片  名 Auntie Edna
◎年  代 2018
◎产  地 美国
◎类  别 喜剧 / 科幻 / 动画 / 短片
◎语  言 英语
◎上映日期 2018-11-06(美国)
◎IMDb评分  7.1/10 from 2853 users
◎IMDb链接  https://www.imdb.com/title/tt8952294/
◎豆瓣评分 8.0/10 from 1638 users
◎豆瓣链接 https://movie.douban.com/subject/30370121/
◎片  长 5分钟
◎导  演 泰德·马托特 Ted Mathot
◎编  剧 泰德·马托特 Ted Mathot
◎主  演 布拉德·伯德 Brad Bird
       伊莱·富西尔 Eli Fucile


◎简  介

  衣夫人EDNA照看Jack-Jack的几个小时里究竟发生了什么神奇事件

Video
ID : 1
Format : HEVC
Format/Info : High Efficiency Video Coding
Format profile : Main 10@L5@High
HDR format : SMPTE ST 2086, HDR10 compatible
Codec ID : V_MPEGH/ISO/HEVC
Duration : 5 min 6 s
Bit rate : 15.4 Mb/s
Width : 3 840 pixels
Height : 2 160 pixels
Display aspect ratio : 16:9
Frame rate mode : Constant
Frame rate : 23.976 (24000/1001) FPS
Color space : YUV
Chroma subsampling : 4:2:0
Bit depth : 10 bits
Bits/(Pixel*Frame) : 0.077
Stream size : 561 MiB (98%)
Writing library : HEVC Coding
Default : Yes
Forced : No
Color range : Limited
Color primaries : BT.2020
Transfer characteristics : PQ
Matrix coefficients : BT.2020 non-constant
Mastering display color primaries : BT.2020
Mastering display luminance : min: 0.0020 cd/m2, max: 1000 cd/m2
Maximum Content Light Level : 959 cd/m2
Maximum Frame-Average Light Level : 188 cd/m2
VENDOR_ID : [0][0][0][0]

Audio
ID : 2
Format : E-AC-3
Format/Info : Enhanced AC-3
Commercial name : Dolby Digital Plus
Codec ID : A_EAC3
Duration : 5 min 6 s
Bit rate mode : Constant
Bit rate : 256 kb/s
Channel(s) : 6 channels
Channel layout : L R C LFE Ls Rs
Sampling rate : 48.0 kHz
Frame rate : 31.250 FPS (1536 SPF)
Compression mode : Lossy
Stream size : 9.35 MiB (2%)
Language : English
Service kind : Complete Main
Default : Yes
Forced : No

Text #1
ID : 3
Format : UTF-8
Codec ID : S_TEXT/UTF8
Codec ID/Info : UTF-8 Plain Text
Duration : 4 min 53 s
Bit rate : 31 b/s
Count of elements : 41
Stream size : 1.14 KiB (0%)
Language : Czech
Default : No
Forced : No

Text #2
ID : 4
Format : UTF-8
Codec ID : S_TEXT/UTF8
Codec ID/Info : UTF-8 Plain Text
Duration : 4 min 52 s
Bit rate : 26 b/s
Count of elements : 41
Stream size : 984 Bytes (0%)
Language : Danish
Default : No
Forced : No

Text #3
ID : 5
Format : UTF-8
Codec ID : S_TEXT/UTF8
Codec ID/Info : UTF-8 Plain Text
Duration : 4 min 33 s
Bit rate : 30 b/s
Count of elements : 40
Stream size : 1.03 KiB (0%)
Language : German
Default : No
Forced : No

Text #4
ID : 6
Format : UTF-8
Codec ID : S_TEXT/UTF8
Codec ID/Info : UTF-8 Plain Text
Duration : 4 min 53 s
Bit rate : 54 b/s
Count of elements : 41
Stream size : 1.96 KiB (0%)
Language : Greek
Default : No
Forced : No

Text #5
ID : 7
Format : UTF-8
Codec ID : S_TEXT/UTF8
Codec ID/Info : UTF-8 Plain Text
Duration : 4 min 36 s
Bit rate : 55 b/s
Count of elements : 81
Stream size : 1.86 KiB (0%)
Title : SDH
Language : English
Default : No
Forced : No

Text #6
ID : 8
Format : UTF-8
Codec ID : S_TEXT/UTF8
Codec ID/Info : UTF-8 Plain Text
Duration : 4 min 33 s
Bit rate : 31 b/s
Count of elements : 40
Stream size : 1.04 KiB (0%)
Title : Latin American
Language : Spanish
Default : No
Forced : No

Text #7
ID : 9
Format : UTF-8
Codec ID : S_TEXT/UTF8
Codec ID/Info : UTF-8 Plain Text
Duration : 4 min 33 s
Bit rate : 32 b/s
Count of elements : 40
Stream size : 1.08 KiB (0%)
Title : European
Language : Spanish
Default : No
Forced : No

Text #8
ID : 10
Format : UTF-8
Codec ID : S_TEXT/UTF8
Codec ID/Info : UTF-8 Plain Text
Duration : 4 min 53 s
Bit rate : 30 b/s
Count of elements : 41
Stream size : 1.09 KiB (0%)
Language : Finnish
Default : No
Forced : No

Text #9
ID : 11
Format : UTF-8
Codec ID : S_TEXT/UTF8
Codec ID/Info : UTF-8 Plain Text
Duration : 4 min 33 s
Bit rate : 30 b/s
Count of elements : 40
Stream size : 1.02 KiB (0%)
Title : Canadian
Language : French
Default : No
Forced : No

Text #10
ID : 12
Format : UTF-8
Codec ID : S_TEXT/UTF8
Codec ID/Info : UTF-8 Plain Text
Duration : 4 min 27 s
Bit rate : 30 b/s
Count of elements : 37
Stream size : 1 021 Bytes (0%)
Title : European
Language : French
Default : No
Forced : No

Text #11
ID : 13
Format : UTF-8
Codec ID : S_TEXT/UTF8
Codec ID/Info : UTF-8 Plain Text
Duration : 4 min 53 s
Bit rate : 29 b/s
Count of elements : 39
Stream size : 1.07 KiB (0%)
Language : Hungarian
Default : No
Forced : No

Text #12
ID : 14
Format : UTF-8
Codec ID : S_TEXT/UTF8
Codec ID/Info : UTF-8 Plain Text
Duration : 4 min 33 s
Bit rate : 32 b/s
Count of elements : 40
Stream size : 1.08 KiB (0%)
Language : Italian
Default : No
Forced : No

Text #13
ID : 15
Format : UTF-8
Codec ID : S_TEXT/UTF8
Codec ID/Info : UTF-8 Plain Text
Duration : 4 min 33 s
Bit rate : 30 b/s
Count of elements : 37
Stream size : 1.03 KiB (0%)
Language : Japanese
Default : No
Forced : No

Text #14
ID : 16
Format : UTF-8
Codec ID : S_TEXT/UTF8
Codec ID/Info : UTF-8 Plain Text
Duration : 4 min 33 s
Bit rate : 33 b/s
Count of elements : 40
Stream size : 1.12 KiB (0%)
Language : Korean
Default : No
Forced : No

Text #15
ID : 17
Format : UTF-8
Codec ID : S_TEXT/UTF8
Codec ID/Info : UTF-8 Plain Text
Duration : 4 min 53 s
Bit rate : 29 b/s
Count of elements : 41
Stream size : 1.04 KiB (0%)
Language : Norwegian Bokmal
Default : No
Forced : No

Text #16
ID : 18
Format : UTF-8
Codec ID : S_TEXT/UTF8
Codec ID/Info : UTF-8 Plain Text
Duration : 4 min 33 s
Bit rate : 30 b/s
Count of elements : 33
Stream size : 1.02 KiB (0%)
Language : Dutch
Default : No
Forced : No

Text #17
ID : 19
Format : UTF-8
Codec ID : S_TEXT/UTF8
Codec ID/Info : UTF-8 Plain Text
Duration : 4 min 31 s
Bit rate : 29 b/s
Count of elements : 39
Stream size : 993 Bytes (0%)
Language : Polish
Default : No
Forced : No

Text #18
ID : 20
Format : UTF-8
Codec ID : S_TEXT/UTF8
Codec ID/Info : UTF-8 Plain Text
Duration : 4 min 33 s
Bit rate : 33 b/s
Count of elements : 40
Stream size : 1.11 KiB (0%)
Title : Brazilian
Language : Portuguese
Default : No
Forced : No

Text #19
ID : 21
Format : UTF-8
Codec ID : S_TEXT/UTF8
Codec ID/Info : UTF-8 Plain Text
Duration : 4 min 53 s
Bit rate : 33 b/s
Count of elements : 40
Stream size : 1.21 KiB (0%)
Title : European
Language : Portuguese
Default : No
Forced : No

Text #20
ID : 22
Format : UTF-8
Codec ID : S_TEXT/UTF8
Codec ID/Info : UTF-8 Plain Text
Duration : 4 min 53 s
Bit rate : 26 b/s
Count of elements : 39
Stream size : 986 Bytes (0%)
Language : Romanian
Default : No
Forced : No

Text #21
ID : 23
Format : UTF-8
Codec ID : S_TEXT/UTF8
Codec ID/Info : UTF-8 Plain Text
Duration : 4 min 52 s
Bit rate : 28 b/s
Count of elements : 41
Stream size : 1.00 KiB (0%)
Language : Swedish
Default : No
Forced : No

Text #22
ID : 24
Format : UTF-8
Codec ID : S_TEXT/UTF8
Codec ID/Info : UTF-8 Plain Text
Duration : 4 min 53 s
Bit rate : 32 b/s
Count of elements : 39
Stream size : 1.17 KiB (0%)
Language : Turkish
Default : No
Forced : No

Text #23
ID : 25
Format : UTF-8
Codec ID : S_TEXT/UTF8
Codec ID/Info : UTF-8 Plain Text
Duration : 4 min 33 s
Bit rate : 33 b/s
Count of elements : 42
Stream size : 1.13 KiB (0%)
Title : 中文(简体)
Language : 中文
Default : No
Forced : No

Text #24
ID : 26
Format : UTF-8
Codec ID : S_TEXT/UTF8
Codec ID/Info : UTF-8 Plain Text
Duration : 4 min 33 s
Bit rate : 27 b/s
Count of elements : 40
Stream size : 941 Bytes (0%)
Title : 中文(繁体)
Language : 中文
Default : No
Forced : No

Text #25
ID : 27
Format : UTF-8
Codec ID : S_TEXT/UTF8
Codec ID/Info : UTF-8 Plain Text
Duration : 4 min 33 s
Bit rate : 25 b/s
Count of elements : 40
Stream size : 870 Bytes (0%)
Title : 中国香港(繁体)
Language : 中文
Default : No
Forced : No


Menu
00:05:04.721 : en:Credits

资源速度为零或资源敏感被和谐时,推荐使用qBittorrent等下载软件,有条件的推荐115更好的下载软件!

下载地址:

游客,如果您要查看本帖隐藏内容请回复





上一篇:叶卡捷琳娜二世俄版的高清有吗
下一篇:美少女特攻队 (内封中字)/Sucker Punch (2011) 4k高清版本下载
回复

使用道具 举报

57

主题

1541

帖子

4481

积分

4K家园VIP

Rank: 9Rank: 9Rank: 9

积分
4481
发表于 2022-5-4 11:27:25 来自手机 | 显示全部楼层
我了个去,顶了
回复 支持 反对

使用道具 举报

5

主题

20

帖子

118

积分

新手上路

Rank: 1

积分
118
发表于 2022-5-4 13:26:18 | 显示全部楼层
感谢分享~莫衣娜阿姨 (内封简繁中字)/ Auntie Edna (2018) 4k高清版本下载
回复 支持 反对

使用道具 举报

0

主题

67

帖子

1843

积分

注册会员

Rank: 2

积分
1843
发表于 2022-5-4 19:12:29 | 显示全部楼层
儿子喜欢的 收下了
回复 支持 反对

使用道具 举报

0

主题

54

帖子

543

积分

新手上路

Rank: 1

积分
543
发表于 2022-5-4 23:48:28 | 显示全部楼层
5分钟的短片吗
回复 支持 反对

使用道具 举报

0

主题

1

帖子

6

积分

新手上路

Rank: 1

积分
6
发表于 2022-5-5 10:04:56 | 显示全部楼层
新人报道
回复

使用道具 举报

0

主题

2

帖子

9

积分

新手上路

Rank: 1

积分
9
发表于 2022-5-5 15:54:57 来自手机 | 显示全部楼层
h了聊来了里就了里就了里就
回复 支持 反对

使用道具 举报

0

主题

2

帖子

9

积分

新手上路

Rank: 1

积分
9
发表于 2022-5-5 15:55:29 来自手机 | 显示全部楼层
JJ了聊来了里就了里就了里就
回复 支持 反对

使用道具 举报

2

主题

1189

帖子

3587

积分

4K家园VIP

Rank: 9Rank: 9Rank: 9

积分
3587
发表于 2022-5-6 19:40:08 | 显示全部楼层
我了个去,顶了
回复 支持 反对

使用道具 举报

2

主题

1363

帖子

4105

积分

4K家园VIP

Rank: 9Rank: 9Rank: 9

积分
4105
发表于 2022-5-7 20:16:33 | 显示全部楼层
额.....这个可以有
回复 支持 反对

使用道具 举报

您需要登录后才可以回帖 登录 | 立即注册

本版积分规则

精彩图文
Archiver|手机版|TAG|Sitemap|新帖|专题|联系我们:邮箱: 4kjia.com@gmail.com   

4k家园   ©2019