找我经纪人/Ten.Percent(英版) (2022)/第二季全8集/4K高清版本下载

[复制链接]

121

主题

140

帖子

1369

积分

版主

Rank: 7Rank: 7Rank: 7

积分
1369
 楼主| 发表于 2022-5-4 15:36:05 | 显示全部楼层 |阅读模式
ff0a0b4795fba2f8d0cd6bc55e57e12a_副本.jpg

◎译  名 找我经纪人(英版)/10%/百分之十/找我经纪人英版/Call My Agent (UK)
◎片  名 Ten Percent
◎年  代 2022
◎产  地 加拿大/英国
◎类  别 喜剧
◎语  言 英语
◎上映日期 2022-04-28(英国)
◎IMDb评分  5.8/10 from 176 users
◎IMDb链接  https://www.imdb.com/title/tt11181824/
◎豆瓣评分 0/10 from 0 users
◎豆瓣链接 https://douban.com/subject/35453469/
◎集  数 8
◎导  演 萨姆·莱费尔 Sam Leifer / 约翰·莫顿 John Morton
◎编  剧 约翰·莫顿 John Morton / 艾拉·洛德 Ella Road / 基思·阿库希 Keith Akushie / 卡特·克拉克 Cat Clarke / 布莱斯·哈特 Bryce Hart / 阿比盖尔·威尔森 Abigail Wilson
◎主  演 莉迪亚·伦纳德 Lydia Leonard
       杰克·达文波特 Jack Davenport
       玛姬·斯蒂德 Maggie Steed
       普拉萨纳·瓦纳拉佳 Prasanna Puwanarajah
       希夫图·卡西姆 Hiftu Quasem
       福拉·埃文斯·阿金博拉 Fola Evans-Akingbola
       丽贝卡·汉弗莱斯 Rebecca Humphries
       哈里·特雷瓦尔德温 Harry Trevaldwyn
       蒂姆·麦克纳尼 Tim McInnerny
       娜塔莎·里特 Natasha Little
       爱德华·布卢梅尔 Edward Bluemel
       吉姆·布劳德本特 Jim Broadbent
       埃莱奥诺雷·阿诺 Eléonore Arnaud
       海伦娜·伯翰·卡特 Helena Bonham Carter
       凯莉·麦克唐纳 Kelly Macdonald
       奥莉维亚·威廉姆斯 Olivia Williams
       菲比·黛内芙 Phoebe Dynevor
       艾玛·科林 Emma Corrin
       克蕾曼丝·波西 Clémence Poésy
       多米尼克·韦斯特 Dominic West
       大卫·奥伊罗 David Oyelowo
       杰西卡·奥伊罗 Jessica Oyelowo
       希米什·帕特尔 Himesh Patel
       大卫·哈雷伍德 David Harewood
       切尔茜·克里斯普 Chelsey Crisp
       埃米特·斯坎伦 Emmett J Scanlan
       达尔·达什 Dar Dash
       杰伊·泰勒 Jay Taylor
       乔治·坎普 George Kemp
       塞尔瓦·拉萨林根 Selva Rasalingam
       贝基·布伦宁 Becky Brunning
       尼克·哈里斯 Nick Harris
       蕾切尔·蔡 Racheal Tse


◎简  介


  本剧翻拍自法剧《百分之十》,由BAFTA获奖编剧John Morton负责,众多英美一线明星客串。聚焦跨大西洋行业关系,还会涉及英国对阶级制度的痴迷等方面。

Video
ID : 1
Format : HEVC
Format/Info : High Efficiency Video Coding
Format profile : Main 10@L5@Main
HDR format : SMPTE ST 2094 App 4, Version 1, HDR10+ Profile B compatible
Codec ID : V_MPEGH/ISO/HEVC
Duration : 52 min 27 s
Bit rate : 14.6 Mb/s
Width : 3 840 pixels
Height : 2 160 pixels
Display aspect ratio : 16:9
Frame rate mode : Constant
Frame rate : 25.000 FPS
Color space : YUV
Chroma subsampling : 4:2:0
Bit depth : 10 bits
Bits/(Pixel*Frame) : 0.071
Stream size : 5.36 GiB (99%)
Language : English
Default : Yes
Forced : No
Color range : Limited
Color primaries : BT.2020
Transfer characteristics : PQ
Matrix coefficients : BT.2020 non-constant
Mastering display color primaries : Display P3
Mastering display luminance : min: 0.0001 cd/m2, max: 1000 cd/m2
Maximum Content Light Level : 957 cd/m2
Maximum Frame-Average Light Level : 191 cd/m2

Audio
ID : 2
Format : E-AC-3
Format/Info : Enhanced AC-3
Commercial name : Dolby Digital Plus
Codec ID : A_EAC3
Duration : 52 min 27 s
Bit rate mode : Constant
Bit rate : 192 kb/s
Channel(s) : 6 channels
Channel layout : L R C LFE Ls Rs
Sampling rate : 48.0 kHz
Frame rate : 31.250 FPS (1536 SPF)
Compression mode : Lossy
Stream size : 72.0 MiB (1%)
Title : United Kingdom
Language : English
Service kind : Complete Main
Default : Yes
Forced : No

Text #1
ID : 3
Format : UTF-8
Codec ID : S_TEXT/UTF8
Codec ID/Info : UTF-8 Plain Text
Duration : 50 min 22 s
Bit rate : 76 b/s
Count of elements : 821
Stream size : 28.3 KiB (0%)
Title : United Kingdom
Language : English
Default : No
Forced : No

Text #2
ID : 4
Format : UTF-8
Codec ID : S_TEXT/UTF8
Codec ID/Info : UTF-8 Plain Text
Duration : 50 min 29 s
Bit rate : 80 b/s
Count of elements : 864
Stream size : 29.7 KiB (0%)
Title : United Kingdom (SDH)
Language : English
Default : No
Forced : No

Text #3
ID : 5
Format : UTF-8
Codec ID : S_TEXT/UTF8
Codec ID/Info : UTF-8 Plain Text
Duration : 51 min 21 s
Bit rate : 69 b/s
Count of elements : 783
Stream size : 26.1 KiB (0%)
Title : Denmark
Language : Danish
Default : No
Forced : No

Text #4
ID : 6
Format : UTF-8
Codec ID : S_TEXT/UTF8
Codec ID/Info : UTF-8 Plain Text
Duration : 51 min 21 s
Bit rate : 70 b/s
Count of elements : 786
Stream size : 26.4 KiB (0%)
Title : Latin America
Language : Spanish
Default : No
Forced : No

Text #5
ID : 7
Format : UTF-8
Codec ID : S_TEXT/UTF8
Codec ID/Info : UTF-8 Plain Text
Duration : 51 min 21 s
Bit rate : 68 b/s
Count of elements : 785
Stream size : 25.7 KiB (0%)
Language : Finnish
Default : No
Forced : No

Text #6
ID : 8
Format : UTF-8
Codec ID : S_TEXT/UTF8
Codec ID/Info : UTF-8 Plain Text
Duration : 51 min 21 s
Bit rate : 68 b/s
Count of elements : 782
Stream size : 25.9 KiB (0%)
Title : Canada
Language : French
Default : No
Forced : No

Text #7
ID : 9
Format : UTF-8
Codec ID : S_TEXT/UTF8
Codec ID/Info : UTF-8 Plain Text
Duration : 51 min 21 s
Bit rate : 63 b/s
Count of elements : 786
Stream size : 23.9 KiB (0%)
Title : Norway
Language : Norwegian Bokmal
Default : No
Forced : No

Text #8
ID : 10
Format : UTF-8
Codec ID : S_TEXT/UTF8
Codec ID/Info : UTF-8 Plain Text
Duration : 51 min 21 s
Bit rate : 66 b/s
Count of elements : 787
Stream size : 25.0 KiB (0%)
Title : Brazil
Language : Portuguese
Default : No
Forced : No

Text #9
ID : 11
Format : UTF-8
Codec ID : S_TEXT/UTF8
Codec ID/Info : UTF-8 Plain Text
Duration : 51 min 21 s
Bit rate : 67 b/s
Count of elements : 783
Stream size : 25.4 KiB (0%)
Title : Sweden
Language : Swedish
Default : No
Forced : No

Menu
00:00:00.000 : en:Amazon Original
00:00:13.000 : en:Scene 2
00:01:29.000 : en:Scene 3
00:01:41.000 : en:Scene 4
00:02:11.000 : en:Scene 5
00:02:29.000 : en:Opening Credits
00:03:25.000 : en:Title Sequence
00:03:29.000 : en:Scene 8
00:03:37.000 : en:Scene 9
00:04:06.000 : en:Scene 10
00:04:42.000 : en:Scene 11
00:07:17.000 : en:Scene 12
00:08:02.000 : en:Scene 13
00:08:51.000 : en:Scene 14
00:09:28.000 : en:Scene 15
00:10:33.000 : en:Scene 16
00:11:03.000 : en:Scene 17
00:12:12.000 : en:Scene 18
00:12:52.000 : en:Scene 19
00:14:54.000 : en:Scene 20
00:16:32.000 : en:Scene 21
00:17:22.000 : en:Scene 22
00:19:27.000 : en:Scene 23
00:20:32.000 : en:Scene 24
00:21:53.000 : en:Scene 25
00:23:27.000 : en:Scene 26
00:24:45.000 : en:Scene 27
00:25:38.000 : en:Scene 28
00:26:11.000 : en:Scene 29
00:27:06.000 : en:Scene 30
00:28:50.000 : en:Scene 31
00:29:24.000 : en:Scene 32
00:30:23.000 : en:Scene 33
00:30:57.000 : en:Scene 34
00:31:14.000 : en:Scene 35
00:32:54.000 : en:Scene 36
00:33:50.000 : en:Scene 37
00:34:26.000 : en:Scene 38
00:36:05.000 : en:Scene 39
00:37:52.000 : en:Scene 40
00:38:41.000 : en:Scene 41
00:39:12.000 : en:Scene 42
00:40:36.000 : en:Scene 43
00:41:47.000 : en:Scene 44
00:42:19.000 : en:Scene 45
00:43:29.000 : en:Scene 46
00:44:18.000 : en:Scene 47
00:44:37.000 : en:Scene 48
00:45:18.000 : en:Scene 49
00:46:21.000 : en:Scene 50
00:47:23.000 : en:Scene 51
00:48:00.000 : en:Scene 52
00:49:13.000 : en:Scene 53
00:51:06.000 : en:End Credits

下载地址:

游客,如果您要查看本帖隐藏内容请回复





上一篇:麻木不仁(内嵌简繁中字) (2020)/ 第二季全10集/4K高清版本下载
下一篇:来自普莱恩维尔的女孩 (2022)/第二季全8集/4K高清版本下载
回复

使用道具 举报

50

主题

1499

帖子

4301

积分

4K家园VIP

Rank: 9Rank: 9Rank: 9

积分
4301
发表于 2022-5-4 15:37:10 | 显示全部楼层
站位支持
回复 支持 反对

使用道具 举报

1

主题

1313

帖子

3757

积分

4K家园VIP

Rank: 9Rank: 9Rank: 9

积分
3757
发表于 2022-5-4 23:02:13 来自手机 | 显示全部楼层
支持,赞一个
回复 支持 反对

使用道具 举报

1

主题

1631

帖子

4515

积分

4K家园VIP

Rank: 9Rank: 9Rank: 9

积分
4515
发表于 2022-5-5 13:49:51 | 显示全部楼层
回复 支持 反对

使用道具 举报

46

主题

1466

帖子

4234

积分

4K家园VIP

Rank: 9Rank: 9Rank: 9

积分
4234
发表于 2022-5-7 01:06:00 来自手机 | 显示全部楼层
顶起顶起顶起
回复 支持 反对

使用道具 举报

1

主题

1361

帖子

4097

积分

4K家园VIP

Rank: 9Rank: 9Rank: 9

积分
4097
发表于 2022-5-7 06:30:54 来自手机 | 显示全部楼层
支持下楼主,顶一个
回复 支持 反对

使用道具 举报

您需要登录后才可以回帖 登录 | 立即注册

本版积分规则

精彩图文
Archiver|手机版|TAG|Sitemap|新帖|专题|联系我们:邮箱: 4kjia.com@gmail.com   

4k家园   ©2019