月光骑士(内嵌简繁中字) (2022)/ 第一季全6集/4K高清版本下载

  [复制链接]

203

主题

226

帖子

2233

积分

版主

Rank: 7Rank: 7Rank: 7

积分
2233
 楼主| 发表于 2022-5-4 17:20:31 | 显示全部楼层 |阅读模式
本帖最后由 美剧小虾 于 2022-5-6 20:04 编辑

p2869517751_副本.png

◎译  名 月光骑士
◎片  名 Moon Knight
◎年  代 2022
◎产  地 美国
◎类  别 剧情/动作/科幻/恐怖/奇幻/冒险
◎语  言 英语
◎上映日期 2022-03-30(美国)
◎IMDb评分  7.6/10 from 83238 users
◎IMDb链接  https://www.imdb.com/title/tt10234724/
◎豆瓣评分 8.3/10 from 38308 users
◎豆瓣链接 https://douban.com/subject/26358318/
◎集  数 6
◎片  长 50分钟
◎导  演 穆罕默德·迪亚卜 Mohamed Diab / 贾斯汀·本森 Justin Benson / 艾伦·穆尔黑德 Aaron Moorhead
◎编  剧 杰瑞米·斯莱特 Jeremy Slater / 道格·蒙克 Doug Moench / 杰克·科比 Jack Kirby / 斯坦·李 Stan Lee
◎主  演 奥斯卡·伊萨克 Oscar Isaac
       伊桑·霍克 Ethan Hawke
       加斯帕德·尤利尔 Gaspard Ulliel
       F·默里·亚伯拉罕 F. Murray Abraham
       梅·卡拉美维 May El Calamawy
       露西·萨克雷 Lucy Thackeray


◎简  介


  奥斯卡·伊萨克饰演月光骑士/马克·史贝特具有分离性身份识别障碍,拥有性格迥异多重人格的他陷入埃及诸神的致命之战。
  马克‧史贝特是一名美国海军陆战队退役士兵,他成为一名雇佣兵,在埃及沙漠中死亡。埃及月亮之神孔苏复活了他并赐予力量。史贝特患有精神疾病,他的不同身份拥有性格迥异的人格。其中一个人格为温文儒雅的礼品店店员斯蒂芬·葛兰特(Steven Grant),长期遭受睡眠障碍困扰,甚至分不清梦境与现实。

Video
ID : 1
Format : HEVC
Format/Info : High Efficiency Video Coding
Format profile : Main 10@L5.2@Main
HDR format : Dolby Vision, Version 1.0, dvhe.05.06, BL+RPU
Codec ID : V_MPEGH/ISO/HEVC
Duration : 51 min 7 s
Bit rate : 22.3 Mb/s
Width : 3 840 pixels
Height : 2 160 pixels
Display aspect ratio : 16:9
Frame rate mode : Constant
Frame rate : 24.000 FPS
Color space : YUV
Chroma subsampling : 4:2:0 (Type 0)
Bit depth : 10 bits
Bits/(Pixel*Frame) : 0.112
Stream size : 7.96 GiB (97%)
Default : No
Forced : No
Color range : Full

Audio
ID : 2
Format : E-AC-3 JOC
Format/Info : Enhanced AC-3 with Joint Object Coding
Commercial name : Dolby Digital Plus with Dolby Atmos
Codec ID : A_EAC3
Duration : 51 min 7 s
Bit rate mode : Constant
Bit rate : 768 kb/s
Channel(s) : 6 channels
Channel layout : L R C LFE Ls Rs
Sampling rate : 48.0 kHz
Frame rate : 31.250 FPS (1536 SPF)
Compression mode : Lossy
Stream size : 281 MiB (3%)
Language : English
Service kind : Complete Main
Default : No
Forced : No
Complexity index : 16
Number of dynamic objects : 15
Bed channel count : 1 channel
Bed channel configuration : LFE

Text #1
ID : 3
Format : UTF-8
Codec ID : S_TEXT/UTF8
Codec ID/Info : UTF-8 Plain Text
Duration : 46 min 29 s
Bit rate : 43 b/s
Count of elements : 404
Stream size : 14.8 KiB (0%)
Language : English
Default : No
Forced : No

Text #2
ID : 4
Format : UTF-8
Codec ID : S_TEXT/UTF8
Codec ID/Info : UTF-8 Plain Text
Duration : 46 min 35 s
Bit rate : 47 b/s
Count of elements : 480
Stream size : 16.1 KiB (0%)
Title : SDH
Language : English
Default : No
Forced : No

Text #3
ID : 5
Format : UTF-8
Codec ID : S_TEXT/UTF8
Codec ID/Info : UTF-8 Plain Text
Duration : 50 min 51 s
Bit rate : 30 b/s
Count of elements : 404
Stream size : 11.5 KiB (0%)
Title : 中午(香港)
Language : 中文
Default : No
Forced : No

Text #4
ID : 6
Format : UTF-8
Codec ID : S_TEXT/UTF8
Codec ID/Info : UTF-8 Plain Text
Duration : 50 min 51 s
Bit rate : 36 b/s
Count of elements : 404
Stream size : 13.4 KiB (0%)
Title : 中文(简体)
Language : 中文
Default : No
Forced : No

Text #5
ID : 7
Format : UTF-8
Codec ID : S_TEXT/UTF8
Codec ID/Info : UTF-8 Plain Text
Duration : 50 min 51 s
Bit rate : 30 b/s
Count of elements : 398
Stream size : 11.3 KiB (0%)
Title : 中文(繁体)
Language : 中文
Default : No
Forced : No


Text #6
ID : 8
Format : UTF-8
Codec ID : S_TEXT/UTF8
Codec ID/Info : UTF-8 Plain Text
Duration : 50 min 51 s
Bit rate : 35 b/s
Count of elements : 399
Stream size : 13.4 KiB (0%)
Language : Czech
Default : No
Forced : No

Text #7
ID : 9
Format : UTF-8
Codec ID : S_TEXT/UTF8
Codec ID/Info : UTF-8 Plain Text
Duration : 50 min 50 s
Bit rate : 34 b/s
Count of elements : 349
Stream size : 12.9 KiB (0%)
Language : Danish
Default : No
Forced : No

Text #8
ID : 10
Format : UTF-8
Codec ID : S_TEXT/UTF8
Codec ID/Info : UTF-8 Plain Text
Duration : 50 min 53 s
Bit rate : 37 b/s
Count of elements : 437
Stream size : 13.8 KiB (0%)
Language : German
Default : No
Forced : No

Text #9
ID : 11
Format : UTF-8
Codec ID : S_TEXT/UTF8
Codec ID/Info : UTF-8 Plain Text
Duration : 50 min 51 s
Bit rate : 39 b/s
Count of elements : 402
Stream size : 14.8 KiB (0%)
Title : Latin American
Language : Spanish
Default : No
Forced : No

Text #10
ID : 12
Format : UTF-8
Codec ID : S_TEXT/UTF8
Codec ID/Info : UTF-8 Plain Text
Duration : 50 min 51 s
Bit rate : 37 b/s
Count of elements : 399
Stream size : 14.2 KiB (0%)
Title : European
Language : Spanish
Default : No
Forced : No

Text #11
ID : 13
Format : UTF-8
Codec ID : S_TEXT/UTF8
Codec ID/Info : UTF-8 Plain Text
Duration : 50 min 51 s
Bit rate : 38 b/s
Count of elements : 427
Stream size : 14.3 KiB (0%)
Title : Canadian
Language : French
Default : No
Forced : No

Text #12
ID : 14
Format : UTF-8
Codec ID : S_TEXT/UTF8
Codec ID/Info : UTF-8 Plain Text
Duration : 50 min 50 s
Bit rate : 38 b/s
Count of elements : 426
Stream size : 14.3 KiB (0%)
Language : French
Default : No
Forced : No

Text #13
ID : 15
Format : UTF-8
Codec ID : S_TEXT/UTF8
Codec ID/Info : UTF-8 Plain Text
Duration : 50 min 51 s
Bit rate : 66 b/s
Count of elements : 402
Stream size : 24.8 KiB (0%)
Language : Greek
Default : No
Forced : No

Text #14
ID : 16
Format : UTF-8
Codec ID : S_TEXT/UTF8
Codec ID/Info : UTF-8 Plain Text
Duration : 50 min 51 s
Bit rate : 37 b/s
Count of elements : 399
Stream size : 14.0 KiB (0%)
Language : Hungarian
Default : No
Forced : No

Text #15
ID : 17
Format : UTF-8
Codec ID : S_TEXT/UTF8
Codec ID/Info : UTF-8 Plain Text
Duration : 50 min 51 s
Bit rate : 38 b/s
Count of elements : 400
Stream size : 14.4 KiB (0%)
Language : Italian
Default : No
Forced : No

Text #16
ID : 18
Format : UTF-8
Codec ID : S_TEXT/UTF8
Codec ID/Info : UTF-8 Plain Text
Duration : 50 min 51 s
Bit rate : 34 b/s
Count of elements : 473
Stream size : 12.9 KiB (0%)
Language : Japanese
Default : No
Forced : No

Text #17
ID : 19
Format : UTF-8
Codec ID : S_TEXT/UTF8
Codec ID/Info : UTF-8 Plain Text
Duration : 50 min 51 s
Bit rate : 41 b/s
Count of elements : 404
Stream size : 15.5 KiB (0%)
Language : Korean
Default : No
Forced : No

Text #18
ID : 20
Format : UTF-8
Codec ID : S_TEXT/UTF8
Codec ID/Info : UTF-8 Plain Text
Duration : 50 min 53 s
Bit rate : 34 b/s
Count of elements : 365
Stream size : 13.0 KiB (0%)
Language : Dutch
Default : No
Forced : No

Text #19
ID : 21
Format : UTF-8
Codec ID : S_TEXT/UTF8
Codec ID/Info : UTF-8 Plain Text
Duration : 50 min 51 s
Bit rate : 36 b/s
Count of elements : 401
Stream size : 13.7 KiB (0%)
Language : Norwegian
Default : No
Forced : No

Text #20
ID : 22
Format : UTF-8
Codec ID : S_TEXT/UTF8
Codec ID/Info : UTF-8 Plain Text
Duration : 50 min 51 s
Bit rate : 33 b/s
Count of elements : 402
Stream size : 12.6 KiB (0%)
Language : Polish
Default : No
Forced : No

Text #21
ID : 23
Format : UTF-8
Codec ID : S_TEXT/UTF8
Codec ID/Info : UTF-8 Plain Text
Duration : 50 min 51 s
Bit rate : 39 b/s
Count of elements : 401
Stream size : 14.9 KiB (0%)
Language : Portuguese
Default : No
Forced : No

Text #22
ID : 24
Format : UTF-8
Codec ID : S_TEXT/UTF8
Codec ID/Info : UTF-8 Plain Text
Duration : 50 min 51 s
Bit rate : 40 b/s
Count of elements : 403
Stream size : 15.1 KiB (0%)
Title : Brazilian
Language : Portuguese
Default : No
Forced : No

Text #23
ID : 25
Format : UTF-8
Codec ID : S_TEXT/UTF8
Codec ID/Info : UTF-8 Plain Text
Duration : 50 min 51 s
Bit rate : 38 b/s
Count of elements : 402
Stream size : 14.3 KiB (0%)
Language : Romanian
Default : No
Forced : No

Text #24
ID : 26
Format : UTF-8
Codec ID : S_TEXT/UTF8
Codec ID/Info : UTF-8 Plain Text
Duration : 50 min 51 s
Bit rate : 38 b/s
Count of elements : 402
Stream size : 14.3 KiB (0%)
Language : Slovak
Default : No
Forced : No

Text #25
ID : 27
Format : UTF-8
Codec ID : S_TEXT/UTF8
Codec ID/Info : UTF-8 Plain Text
Duration : 50 min 51 s
Bit rate : 34 b/s
Count of elements : 402
Stream size : 12.8 KiB (0%)
Language : Finnish
Default : No
Forced : No

Text #26
ID : 28
Format : UTF-8
Codec ID : S_TEXT/UTF8
Codec ID/Info : UTF-8 Plain Text
Duration : 50 min 51 s
Bit rate : 36 b/s
Count of elements : 402
Stream size : 13.5 KiB (0%)
Language : Swedish
Default : No
Forced : No

Text #27
ID : 29
Format : UTF-8
Codec ID : S_TEXT/UTF8
Codec ID/Info : UTF-8 Plain Text
Duration : 50 min 51 s
Bit rate : 38 b/s
Count of elements : 403
Stream size : 14.4 KiB (0%)
Language : Turkish
Default : No
Forced : No

Menu
00:48:34.208 : en:Credits

下载地址:

游客,如果您要查看本帖隐藏内容请回复

游客,如果您要查看本帖隐藏内容请回复

游客,如果您要查看本帖隐藏内容请回复

游客,如果您要查看本帖隐藏内容请回复





上一篇:心向快乐(内封简繁中字)(2021)/第二季全6集/4K高清版本下载
下一篇:大康恩 (内嵌简繁中字) (2022) / 第一季全4集 / 4K高清版本下载
回复

使用道具 举报

201

主题

1750

帖子

4812

积分

4K家园VIP

Rank: 9Rank: 9Rank: 9

积分
4812
发表于 2022-5-4 17:21:00 来自手机 | 显示全部楼层
好帖必须得顶起
回复 支持 反对

使用道具 举报

0

主题

1

帖子

6

积分

新手上路

Rank: 1

积分
6
发表于 2022-5-4 18:02:32 | 显示全部楼层
感恩無私分享
回复 支持 反对

使用道具 举报

0

主题

3

帖子

18

积分

新手上路

Rank: 1

积分
18
发表于 2022-5-4 18:30:05 | 显示全部楼层
666666666666666666666
回复 支持 反对

使用道具 举报

0

主题

10

帖子

33

积分

新手上路

Rank: 1

积分
33
发表于 2022-5-4 18:45:25 | 显示全部楼层
SDFSDFSFDSD
回复 支持 反对

使用道具 举报

0

主题

10

帖子

33

积分

新手上路

Rank: 1

积分
33
发表于 2022-5-4 18:54:38 | 显示全部楼层
32
14916F159RAWE48GF6DS1AGF61ERAG
回复 支持 反对

使用道具 举报

0

主题

10

帖子

33

积分

新手上路

Rank: 1

积分
33
发表于 2022-5-4 18:54:45 | 显示全部楼层
FGAERG345YT3WGDASGDFASGAF
回复 支持 反对

使用道具 举报

0

主题

67

帖子

1843

积分

注册会员

Rank: 2

积分
1843
发表于 2022-5-4 19:11:21 | 显示全部楼层
感恩无私分享  谢谢
回复 支持 反对

使用道具 举报

0

主题

2

帖子

160

积分

4K家园VIP

Rank: 9Rank: 9Rank: 9

积分
160
发表于 2022-5-4 19:32:28 | 显示全部楼层
感恩无私分享  谢谢
回复 支持 反对

使用道具 举报

0

主题

34

帖子

224

积分

新手上路

Rank: 1

积分
224
发表于 2022-5-4 20:48:17 | 显示全部楼层
好东西。。。。。。。。。。
回复

使用道具 举报

您需要登录后才可以回帖 登录 | 立即注册

本版积分规则

精彩图文
Archiver|手机版|TAG|Sitemap|新帖|专题|联系我们:邮箱: 4kjia.com@gmail.com   

4k家园   ©2019