[4K电影] 美少女特攻队 (内封中字)/Sucker Punch (2011) 4k高清版本下载

[复制链接]

1733

主题

1866

帖子

1万

积分

超级版主

Rank: 8Rank: 8

积分
14095
 楼主| 发表于 2022-5-6 11:52:51 | 显示全部楼层 |阅读模式
本帖最后由 最爱4K哟 于 2022-5-6 11:54 编辑

QQ图片20220506112723_副本.png

◎译  名 美少女特攻队/杀客同萌(台)/天姬战(港)/专扁衰仔/出其不意/美少女特工队/暴走萝莉(豆友译名)
◎片  名 Sucker Punch
◎年  代 2011
◎产  地 美国
◎类  别 动作/奇幻/惊悚
◎语  言 英语
◎上映日期 2011-03-25(美国)/2011-04-15(中国大陆)
◎IMDb评分 6.0/10 from 240980 users
◎IMDb链接  http://www.imdb.com/title/tt0978764/
◎豆瓣评分 6.3/10 from 63488 users
◎豆瓣链接 https://movie.douban.com/subject/3262050/
◎片  长 110分钟/127分钟(加长版)
◎导  演 扎克·施奈德 Zack Snyder
◎主  演 艾米莉·布朗宁 Emily Browning
      杰米·钟 Jamie Chung
      吉娜·马隆 Jena Malone
      瓦妮莎·哈金斯 Vanessa Hudgens
      艾比·考尼什 Abbie Cornish
      卡拉·古奇诺 Carla Gugino
      乔·哈姆 Jon Hamm
      斯科特·格林 Scott Glenn
      奥斯卡·伊撒克 Oscar Isaac

◎简  介

  金发碧眼的洋娃娃(Emily Browning 饰)宛如一只时刻会受到惊吓的小鸟,这一天她被送进一家私人会所。该会所由蓝佬(Oscar Isaac 饰)掌控,他四处网罗妙龄女孩,并让葛斯基夫人(Carla Gugino 饰)教授她们舞蹈,旨在取悦那些腰缠万贯的富翁和手眼通天的政要。洋娃娃在此结识了小甜荳(Abbie Cornish 饰)、火箭女(Jena Malone 饰)、布女郎(Vanessa Hudgens 饰)、黑琥珀(Jamie Chung 饰)这4名好友。洋娃娃不愿沦为供人把玩的工具,她与朋友们商量从此逃走。逃亡计划需要4样工具:地图、打火机、刀和钥匙。朋友们负责盗取这些工具,而洋娃娃则用她那迷人且极具魔幻色彩的舞蹈吸引着蓝佬等人的注意力。
  只是终究也分不清,这是谁人的魔幻世界……
Video
ID : 1
Format : HEVC
Format/Info : High Efficiency Video Coding
Format profile : Main 10@L5@High
HDR format : SMPTE ST 2086, HDR10 compatible
Codec ID : V_MPEGH/ISO/HEVC
Duration : 2 h 7 min
Bit rate : 14.3 Mb/s
Width : 3 832 pixels
Height : 1 584 pixels
Display aspect ratio : 2.40:1
Frame rate mode : Constant
Frame rate : 23.976 FPS
Color space : YUV
Chroma subsampling : 4:2:0 (Type 2)
Bit depth : 10 bits
Bits/(Pixel*Frame) : 0.098
Stream size : 12.7 GiB (76%)
Default : Yes
Forced : No
Color range : Limited
Color primaries : BT.2020
Transfer characteristics : PQ
Matrix coefficients : BT.2020 non-constant
Mastering display color primaries : BT.2020
Mastering display luminance : min: 0.0050 cd/m2, max: 1000 cd/m2
Maximum Content Light Level : 1105 cd/m2
Maximum Frame-Average Light Level : 805 cd/m2

Audio #1
ID : 2
Format : DTS XLL
Format/Info : Digital Theater Systems
Commercial name : DTS-HD Master Audio
Codec ID : A_DTS
Duration : 2 h 7 min
Bit rate mode : Variable
Bit rate : 4 106 kb/s
Channel(s) : 6 channels
Channel layout : C L R Ls Rs LFE
Sampling rate : 48.0 kHz
Frame rate : 93.750 FPS (512 SPF)
Bit depth : 24 bits
Compression mode : Lossless
Delay relative to video : 8 ms
Stream size : 3.66 GiB (22%)
Title : DTS-HD MA 5.1
Language : English
Default : Yes
Forced : No

Audio #2
ID : 3
Format : AC-3
Format/Info : Audio Coding 3
Commercial name : Dolby Digital
Codec ID : A_AC3
Duration : 2 h 7 min
Bit rate mode : Constant
Bit rate : 384 kb/s
Channel(s) : 6 channels
Channel layout : L R C LFE Ls Rs
Sampling rate : 48.0 kHz
Frame rate : 31.250 FPS (1536 SPF)
Compression mode : Lossy
Stream size : 350 MiB (2%)
Language : English
Service kind : Complete Main
Default : Yes
Forced : No

Text #1
ID : 4
Format : UTF-8
Codec ID : S_TEXT/UTF8
Codec ID/Info : UTF-8 Plain Text
Duration : 2 h 7 min
Bit rate : 37 b/s
Count of elements : 1224
Stream size : 35.1 KiB (0%)
Language : English
Default : Yes
Forced : No

Text #2
ID : 5
Format : UTF-8
Codec ID : S_TEXT/UTF8
Codec ID/Info : UTF-8 Plain Text
Duration : 2 h 6 min
Bit rate : 43 b/s
Count of elements : 1249
Stream size : 40.2 KiB (0%)
Title : SDH
Language : German
Default : No
Forced : No

Text #3
ID : 6
Format : UTF-8
Codec ID : S_TEXT/UTF8
Codec ID/Info : UTF-8 Plain Text
Duration : 2 h 6 min
Bit rate : 33 b/s
Count of elements : 1065
Stream size : 31.0 KiB (0%)
Title : Latin American
Language : Spanish
Default : No
Forced : No

Text #4
ID : 7
Format : UTF-8
Codec ID : S_TEXT/UTF8
Codec ID/Info : UTF-8 Plain Text
Duration : 2 h 7 min
Bit rate : 31 b/s
Count of elements : 1070
Stream size : 28.9 KiB (0%)
Language : French
Default : No
Forced : No

Text #5
ID : 8
Format : UTF-8
Codec ID : S_TEXT/UTF8
Codec ID/Info : UTF-8 Plain Text
Duration : 2 h 1 min
Bit rate : 31 b/s
Count of elements : 1047
Stream size : 27.7 KiB (0%)
Language : Japanese
Default : No
Forced : No

Text #6
ID : 9
Format : UTF-8
Codec ID : S_TEXT/UTF8
Codec ID/Info : UTF-8 Plain Text
Duration : 2 h 6 min
Bit rate : 32 b/s
Count of elements : 1044
Stream size : 30.6 KiB (0%)
Title : Brazilian
Language : Portuguese
Default : No
Forced : No

Text #7
ID : 10
Format : PGS
Muxing mode : zlib
Codec ID : S_HDMV/PGS
Codec ID/Info : Picture based subtitle format used on BDs/HD-DVDs
Duration : 2 h 7 min
Bit rate : 20.9 kb/s
Count of elements : 2446
Stream size : 19.0 MiB (0%)
Language : English
Default : No
Forced : No

Text #8
ID : 11
Format : PGS
Muxing mode : zlib
Codec ID : S_HDMV/PGS
Codec ID/Info : Picture based subtitle format used on BDs/HD-DVDs
Duration : 2 h 7 min
Bit rate : 16.0 kb/s
Count of elements : 2142
Stream size : 14.6 MiB (0%)
Language : French
Default : No
Forced : No

Text #9
ID : 12
Format : PGS
Muxing mode : zlib
Codec ID : S_HDMV/PGS
Codec ID/Info : Picture based subtitle format used on BDs/HD-DVDs
Duration : 2 h 7 min
Bit rate : 20.7 kb/s
Count of elements : 2472
Stream size : 18.9 MiB (0%)
Language : Italian
Default : No
Forced : No

Text #10
ID : 13
Format : PGS
Muxing mode : zlib
Codec ID : S_HDMV/PGS
Codec ID/Info : Picture based subtitle format used on BDs/HD-DVDs
Duration : 2 h 7 min
Bit rate : 16.8 kb/s
Count of elements : 2048
Stream size : 15.3 MiB (0%)
Language : Spanish
Default : No
Forced : No

Text #11
ID : 14
Format : PGS
Muxing mode : zlib
Codec ID : S_HDMV/PGS
Codec ID/Info : Picture based subtitle format used on BDs/HD-DVDs
Duration : 2 h 7 min
Bit rate : 15.9 kb/s
Count of elements : 1720
Stream size : 14.4 MiB (0%)
Language : Dutch
Default : No
Forced : No

Text #12
ID : 15
Format : PGS
Muxing mode : zlib
Codec ID : S_HDMV/PGS
Codec ID/Info : Picture based subtitle format used on BDs/HD-DVDs
Duration : 2 h 7 min
Bit rate : 16.4 kb/s
Count of elements : 2118
Stream size : 14.9 MiB (0%)
Language : 中文
Default : No
Forced : No

Text #13
ID : 16
Format : PGS
Muxing mode : zlib
Codec ID : S_HDMV/PGS
Codec ID/Info : Picture based subtitle format used on BDs/HD-DVDs
Duration : 2 h 7 min
Bit rate : 15.2 kb/s
Count of elements : 1626
Stream size : 13.9 MiB (0%)
Language : Danish
Default : No
Forced : No

Text #14
ID : 17
Format : PGS
Muxing mode : zlib
Codec ID : S_HDMV/PGS
Codec ID/Info : Picture based subtitle format used on BDs/HD-DVDs
Duration : 2 h 7 min
Bit rate : 15.1 kb/s
Count of elements : 1764
Stream size : 13.8 MiB (0%)
Language : Finnish
Default : No
Forced : No

Text #15
ID : 18
Format : PGS
Muxing mode : zlib
Codec ID : S_HDMV/PGS
Codec ID/Info : Picture based subtitle format used on BDs/HD-DVDs
Duration : 2 h 7 min
Bit rate : 16.6 kb/s
Count of elements : 2082
Stream size : 15.1 MiB (0%)
Language : Icelandic
Default : No
Forced : No

Text #16
ID : 19
Format : PGS
Muxing mode : zlib
Codec ID : S_HDMV/PGS
Codec ID/Info : Picture based subtitle format used on BDs/HD-DVDs
Duration : 2 h 7 min
Bit rate : 15.0 kb/s
Count of elements : 1720
Stream size : 13.7 MiB (0%)
Language : Norwegian
Default : No
Forced : No

Text #17
ID : 20
Format : PGS
Muxing mode : zlib
Codec ID : S_HDMV/PGS
Codec ID/Info : Picture based subtitle format used on BDs/HD-DVDs
Duration : 2 h 7 min
Bit rate : 15.3 kb/s
Count of elements : 1988
Stream size : 13.9 MiB (0%)
Language : Polish
Default : No
Forced : No

Text #18
ID : 21
Format : PGS
Muxing mode : zlib
Codec ID : S_HDMV/PGS
Codec ID/Info : Picture based subtitle format used on BDs/HD-DVDs
Duration : 2 h 7 min
Bit rate : 17.0 kb/s
Count of elements : 2058
Stream size : 15.5 MiB (0%)
Language : Portuguese
Default : No
Forced : No

Text #19
ID : 22
Format : PGS
Muxing mode : zlib
Codec ID : S_HDMV/PGS
Codec ID/Info : Picture based subtitle format used on BDs/HD-DVDs
Duration : 2 h 7 min
Bit rate : 15.1 kb/s
Count of elements : 2090
Stream size : 13.8 MiB (0%)
Language : Russian
Default : No
Forced : No

Text #20
ID : 23
Format : PGS
Muxing mode : zlib
Codec ID : S_HDMV/PGS
Codec ID/Info : Picture based subtitle format used on BDs/HD-DVDs
Duration : 2 h 7 min
Bit rate : 16.0 kb/s
Count of elements : 1748
Stream size : 14.6 MiB (0%)
Language : Swedish
Default : No
Forced : No

Text #21
ID : 24
Format : PGS
Muxing mode : zlib
Codec ID : S_HDMV/PGS
Codec ID/Info : Picture based subtitle format used on BDs/HD-DVDs
Duration : 2 h 7 min
Bit rate : 16.5 kb/s
Count of elements : 2088
Stream size : 15.0 MiB (0%)
Language : Thai
Default : No
Forced : No

Text #22
ID : 25
Format : PGS
Muxing mode : zlib
Codec ID : S_HDMV/PGS
Codec ID/Info : Picture based subtitle format used on BDs/HD-DVDs
Duration : 2 h 1 min
Bit rate : 19.7 kb/s
Count of elements : 2565
Stream size : 17.1 MiB (0%)
Language : Japanese
Default : No
Forced : No

Menu
00:00:00.000 : en:Chapter 01
00:05:59.985 : en:Chapter 02
00:12:25.703 : en:Chapter 03
00:24:59.456 : en:Chapter 04
00:36:15.590 : en:Chapter 05
00:42:35.720 : en:Chapter 06
00:57:42.501 : en:Chapter 07
01:01:29.936 : en:Chapter 08
01:21:13.118 : en:Chapter 09
01:37:03.526 : en:Chapter 10
01:53:19.543 : en:Chapter 11
02:01:45.757 : en:Chapter 12

资源速度为零或资源敏感被和谐时,推荐使用qBittorrent等下载软件,有条件的推荐115更好的下载软件!

下载地址:


游客,如果您要查看本帖隐藏内容请回复





上一篇:莫衣娜阿姨 (内封简繁中字)/ Auntie Edna (2018) 4k高清版本下载
下一篇:杀戮天眼 / Volition (2019) 4k高清版本下载
回复

使用道具 举报

1

主题

1379

帖子

3979

积分

4K家园VIP

Rank: 9Rank: 9Rank: 9

积分
3979
发表于 2022-5-6 11:52:55 | 显示全部楼层
啊啊啊啊啊啊啊啊啊啊啊
回复 支持 反对

使用道具 举报

1

主题

1362

帖子

4100

积分

4K家园VIP

Rank: 9Rank: 9Rank: 9

积分
4100
发表于 2022-5-6 12:17:49 来自手机 | 显示全部楼层
4K应该不错,我也下个看看
回复 支持 反对

使用道具 举报

0

主题

8230

帖子

1万

积分

4K家园VIP

Rank: 9Rank: 9Rank: 9

积分
18830
发表于 2022-5-6 12:21:02 | 显示全部楼层
太好啦&萬分感謝版主的無私發佈分享%
回复 支持 反对

使用道具 举报

5

主题

1667

帖子

4579

积分

4K家园VIP

Rank: 9Rank: 9Rank: 9

积分
4579
发表于 2022-5-6 13:07:40 | 显示全部楼层
楼下的接上
回复 支持 反对

使用道具 举报

49

主题

1471

帖子

4215

积分

4K家园VIP

Rank: 9Rank: 9Rank: 9

积分
4215
发表于 2022-5-6 14:08:35 | 显示全部楼层
感谢分享
回复 支持 反对

使用道具 举报

49

主题

1531

帖子

4425

积分

4K家园VIP

Rank: 9Rank: 9Rank: 9

积分
4425
发表于 2022-5-6 14:15:40 | 显示全部楼层
我擦!我要沙发!
回复 支持 反对

使用道具 举报

0

主题

2

帖子

9

积分

新手上路

Rank: 1

积分
9
发表于 2022-5-6 16:35:00 | 显示全部楼层

我擦!我要沙发!
回复 支持 反对

使用道具 举报

0

主题

59

帖子

1558

积分

注册会员

Rank: 2

积分
1558
发表于 2022-5-6 18:55:15 | 显示全部楼层
支持一下楼主,顶起来
回复 支持 反对

使用道具 举报

0

主题

12

帖子

57

积分

4K家园VIP

Rank: 9Rank: 9Rank: 9

积分
57
发表于 2022-5-11 10:41:21 | 显示全部楼层
神经病院的奇幻事件
回复 支持 反对

使用道具 举报

您需要登录后才可以回帖 登录 | 立即注册

本版积分规则

精彩图文
Archiver|手机版|TAG|Sitemap|新帖|专题|联系我们:邮箱: 4kjia.com@gmail.com   

4k家园   ©2019