[4K电影] 玉米地的怪物 / Escape The Field (2022) 4k高清版本下载

[复制链接]

主题

帖子

0

积分

超级版主

Rank: 8Rank: 8

积分
0
 楼主| 发表于 2022-5-6 13:21:39 | 显示全部楼层 |阅读模式
本帖最后由 最爱4K哟 于 2022-5-6 13:35 编辑

QQ图片20220506132033_副本.png

◎译  名 玉米地的怪物
◎片  名 Escape The Field
◎年  代 2022
◎产  地 美国
◎类  别 剧情 / 惊悚 / 恐怖
◎语  言 英语
◎上映日期 2022-05-06(美国)
◎IMDb链接  https://www.imdb.com/title/tt11265320/
◎IMDb评分  0/10 from 0 users
◎豆瓣链接 https://movie.douban.com/subject/35400780/
◎豆瓣评分 0/10 from 0 users
◎导  演 爱默生·摩尔 Emerson Moore
◎编  剧 爱默生·摩尔 Emerson Moore / 肖恩·沃特恩 Sean Wathen / 约书亚·多布金 Joshua Dobkin
◎演  员 夏恩·韦斯特 Shane West
       西奥·罗西 Theo Rossi
       乔丹·克莱尔·罗宾斯 Jordan Claire Robbins
       伊莲娜·郁安科 Elena Juatco
       朱利安·费德 Julian Feder

◎简  介

  六个陌生人醒来时被困在一片无尽的玉米地里,却发现了一件神秘的东西正在追捕他们。

Video
ID : 1
Format : HEVC
Format/Info : High Efficiency Video Coding
Format profile : Main 10@L5@High
HDR format : SMPTE ST 2086, HDR10 compatible
Codec ID : V_MPEGH/ISO/HEVC
Duration : 1 h 28 min
Bit rate : 14.3 Mb/s
Width : 3 828 pixels
Height : 1 596 pixels
Display aspect ratio : 2.40:1
Frame rate mode : Constant
Frame rate : 23.976 FPS
Color space : YUV
Chroma subsampling : 4:2:0 (Type 2)
Bit depth : 10 bits
Bits/(Pixel*Frame) : 0.098
Stream size : 8.86 GiB (97%)
Language : English
Default : Yes
Forced : No
Color range : Limited
Color primaries : BT.2020
Transfer characteristics : PQ
Matrix coefficients : BT.2020 non-constant
Mastering display color primaries : Display P3
Mastering display luminance : min: 0.0001 cd/m2, max: 1000 cd/m2
Maximum Content Light Level : 1000 cd/m2
Maximum Frame-Average Light Level : 206 cd/m2

Audio
ID : 2
Format : AC-3
Format/Info : Audio Coding 3
Commercial name : Dolby Digital
Codec ID : A_AC3
Duration : 1 h 28 min
Bit rate mode : Constant
Bit rate : 384 kb/s
Channel(s) : 6 channels
Channel layout : L R C LFE Ls Rs
Sampling rate : 48.0 kHz
Frame rate : 31.250 FPS (1536 SPF)
Compression mode : Lossy
Stream size : 243 MiB (3%)
Language : English
Service kind : Complete Main
Default : Yes
Forced : No

Text #1
ID : 3
Format : UTF-8
Codec ID : S_TEXT/UTF8
Codec ID/Info : UTF-8 Plain Text
Duration : 1 h 20 min
Bit rate : 41 b/s
Count of elements : 937
Stream size : 24.6 KiB (0%)
Title : SDH
Language : English
Default : No
Forced : No

Text #2
ID : 4
Format : UTF-8
Codec ID : S_TEXT/UTF8
Codec ID/Info : UTF-8 Plain Text
Duration : 1 h 19 min
Bit rate : 37 b/s
Count of elements : 798
Stream size : 21.7 KiB (0%)
Language : English
Default : No
Forced : No

资源速度为零或资源敏感被和谐时,推荐使用qBittorrent等下载软件,有条件的推荐115更好的下载软件!

下载地址:


游客,如果您要查看本帖隐藏内容请回复

游客,如果您要查看本帖隐藏内容请回复





上一篇:人为释放 / Unearth (2020) 4k高清版本下载
下一篇:双生 / The Twin (2022) 4k高清版本下载
回复

使用道具 举报

1

主题

1397

帖子

4207

积分

4K家园VIP

Rank: 9Rank: 9Rank: 9

积分
4207
发表于 2022-5-6 13:21:44 | 显示全部楼层
前排支持下了哦~
回复 支持 反对

使用道具 举报

主题

帖子

0

积分

新手上路

Rank: 1

积分
0
发表于 2022-5-6 16:48:59 | 显示全部楼层
谢谢谢谢谢谢谢谢谢
回复 支持 反对

使用道具 举报

46

主题

1524

帖子

4408

积分

4K家园VIP

Rank: 9Rank: 9Rank: 9

积分
4408
发表于 2022-5-6 18:50:48 | 显示全部楼层
小白一个 顶一下
回复 支持 反对

使用道具 举报

2

主题

1668

帖子

4598

积分

4K家园VIP

Rank: 9Rank: 9Rank: 9

积分
4598
发表于 2022-5-6 19:00:47 | 显示全部楼层
我也是坐沙发的
回复 支持 反对

使用道具 举报

57

主题

1586

帖子

4610

积分

4K家园VIP

Rank: 9Rank: 9Rank: 9

积分
4610
发表于 2022-5-7 15:17:41 | 显示全部楼层
多发些资源啊
回复 支持 反对

使用道具 举报

48

主题

1592

帖子

4648

积分

4K家园VIP

Rank: 9Rank: 9Rank: 9

积分
4648
发表于 2022-5-7 19:43:58 | 显示全部楼层
啊啊啊啊啊啊啊啊啊啊啊
回复 支持 反对

使用道具 举报

2

主题

13

帖子

1293

积分

4K家园VIP

Rank: 9Rank: 9Rank: 9

积分
1293
发表于 2022-5-10 11:14:38 来自手机 | 显示全部楼层
没有字幕
回复

使用道具 举报

主题

帖子

57

积分

新手上路

Rank: 1

积分
57
发表于 2022-5-13 14:16:50 | 显示全部楼层

Where is Administration 4kjia.com ??

Can I contact Administration?
It is important.
Thank.
回复 支持 反对

使用道具 举报

主题

帖子

72

积分

新手上路

Rank: 1

积分
72
发表于 2022-5-13 15:45:43 | 显示全部楼层

Where is Administration 4kjia.com ??

Where is admin?
It is important.
Regards.
回复 支持 反对

使用道具 举报

您需要登录后才可以回帖 登录 | 立即注册

本版积分规则

精彩图文
Archiver|手机版|TAG|Sitemap|新帖|专题|联系我们:邮箱: 4kjia.com@gmail.com   

4k家园   ©2019