[4K电影] 双生 / The Twin (2022) 4k高清版本下载

[复制链接]

1735

主题

1868

帖子

1万

积分

超级版主

Rank: 8Rank: 8

积分
14105
 楼主| 发表于 2022-5-6 13:33:28 | 显示全部楼层 |阅读模式
QQ图片20220506132748_副本.png

◎译  名 双生 / 致命孪生 / 鬼双胞(台)
◎片  名 The Twin
◎年  代 2022
◎产  地 芬兰
◎类  别 恐怖
◎语  言 英语
◎上映日期 2022-04-06(芬兰) / 2022-05-06(美国)
◎IMDb评分  5.1/10 from 175 users
◎IMDb链接  https://www.imdb.com/title/tt12390572/
◎豆瓣评分 0/10 from 0 users
◎豆瓣链接 https://movie.douban.com/subject/35391921/
◎导  演 塔内利·穆斯托宁 Taneli Mustonen
◎编  剧 阿列克西·海夫里宁 Aleksi Hyvärinen
◎演  员 泰莉莎·帕尔墨 Teresa Palmer
        史蒂芬·克里 Steven Cree
        芭芭拉·马滕 Barbara Marten
        特里斯坦·鲁格里 Tristan Ruggeri


◎简  介

  一场悲剧性的事故,夺走了双胞胎之一的宝贵生命,也让瑞秋(泰莉莎·帕尔墨 饰)和丈夫安东尼(史蒂芬·克里 饰),带着幸存的儿子艾略特,从美国搬到世界的另一端,期望展开崭新人生。他们起初在宁静的乡村进行康复治疗,很快却发生不祥的恶兆。艾略特竟在此时告诉瑞秋,原本已经死去的兄弟,正在纠缠着他…。瑞秋能否找出让艾略特痛苦的原因,并试图去对抗这股邪恶的力量呢?

Video
ID : 1
Format : HEVC
Format/Info : High Efficiency Video Coding
Format profile : Main 10@L5@High
Codec ID : V_MPEGH/ISO/HEVC
Duration : 1 h 48 min
Bit rate : 11.9 Mb/s
Width : 3 836 pixels
Height : 1 604 pixels
Display aspect ratio : 2.40:1
Frame rate mode : Constant
Frame rate : 23.976 FPS
Color space : YUV
Chroma subsampling : 4:2:0
Bit depth : 10 bits
Bits/(Pixel*Frame) : 0.081
Stream size : 9.05 GiB (97%)
Language : English
Default : Yes
Forced : No
Color range : Limited
Color primaries : BT.709
Transfer characteristics : BT.709
Matrix coefficients : BT.709

Audio
ID : 2
Format : AC-3
Format/Info : Audio Coding 3
Commercial name : Dolby Digital
Codec ID : A_AC3
Duration : 1 h 48 min
Bit rate mode : Constant
Bit rate : 384 kb/s
Channel(s) : 6 channels
Channel layout : L R C LFE Ls Rs
Sampling rate : 48.0 kHz
Frame rate : 31.250 FPS (1536 SPF)
Compression mode : Lossy
Stream size : 298 MiB (3%)
Language : English
Service kind : Complete Main
Default : Yes
Forced : No

Text #1
ID : 3
Format : UTF-8
Codec ID : S_TEXT/UTF8
Codec ID/Info : UTF-8 Plain Text
Duration : 1 h 44 min
Bit rate : 32 b/s
Count of elements : 1108
Stream size : 24.8 KiB (0%)
Title : SDH
Language : English
Default : No
Forced : No

Text #2
ID : 4
Format : UTF-8
Codec ID : S_TEXT/UTF8
Codec ID/Info : UTF-8 Plain Text
Duration : 1 h 42 min
Bit rate : 27 b/s
Count of elements : 948
Stream size : 20.9 KiB (0%)
Language : English
Default : No
Forced : No


资源速度为零或资源敏感被和谐时,推荐使用qBittorrent等下载软件,有条件的推荐115更好的下载软件!

下载地址:


游客,如果您要查看本帖隐藏内容请回复






上一篇:玉米地的怪物 / Escape The Field (2022) 4k高清版本下载
下一篇:好事一小朵,查理·布朗 (内封简繁中字) (2022) 4k高清版本下载
回复

使用道具 举报

0

主题

1339

帖子

4019

积分

4K家园VIP

Rank: 9Rank: 9Rank: 9

积分
4019
发表于 2022-5-6 13:33:33 | 显示全部楼层
支持一下楼主,顶起来
回复 支持 反对

使用道具 举报

2

主题

1188

帖子

3582

积分

4K家园VIP

Rank: 9Rank: 9Rank: 9

积分
3582
发表于 2022-5-6 13:33:33 来自手机 | 显示全部楼层
一直在看
回复 支持 反对

使用道具 举报

2

主题

234

帖子

3077

积分

中级会员

Rank: 4

积分
3077
发表于 2022-5-6 18:52:11 | 显示全部楼层
顶起来               
回复 支持 反对

使用道具 举报

0

主题

59

帖子

1561

积分

注册会员

Rank: 2

积分
1561
发表于 2022-5-6 18:53:47 | 显示全部楼层
支持一下楼主,顶起来
回复 支持 反对

使用道具 举报

5

主题

1667

帖子

4579

积分

4K家园VIP

Rank: 9Rank: 9Rank: 9

积分
4579
发表于 2022-5-8 10:08:05 来自手机 | 显示全部楼层
试试先,好用再说
回复 支持 反对

使用道具 举报

0

主题

714

帖子

2510

积分

注册会员

Rank: 2

积分
2510
发表于 2022-5-9 16:15:49 | 显示全部楼层
感谢分享     
回复 支持 反对

使用道具 举报

1

主题

1357

帖子

4087

积分

4K家园VIP

Rank: 9Rank: 9Rank: 9

积分
4087
发表于 2022-5-9 20:10:52 | 显示全部楼层
高手啊
回复 支持 反对

使用道具 举报

3

主题

1607

帖子

4417

积分

4K家园VIP

Rank: 9Rank: 9Rank: 9

积分
4417
发表于 2022-5-10 19:59:35 | 显示全部楼层
4K应该不错,我也下个看看
回复 支持 反对

使用道具 举报

您需要登录后才可以回帖 登录 | 立即注册

本版积分规则

精彩图文
Archiver|手机版|TAG|Sitemap|新帖|专题|联系我们:邮箱: 4kjia.com@gmail.com   

4k家园   ©2019