[4K电影] 好事一小朵,查理·布朗 (内封简繁中字) (2022) 4k高清版本下载

[复制链接]

1735

主题

1868

帖子

1万

积分

超级版主

Rank: 8Rank: 8

积分
14105
 楼主| 发表于 2022-5-6 15:27:17 | 显示全部楼层 |阅读模式
本帖最后由 最爱4K哟 于 2022-5-6 15:31 编辑

QQ图片20220506151321_副本.png

◎译  名 好事一小朵,查理·布朗 / Snoopy Presents: It's the Small Things, Charlie Brown
◎片  名 It's the Small Things, Charlie Brown
◎年  代 2022
◎产  地 美国 / 加拿大
◎类  别 动画 / 短片 / 家庭
◎语  言 英语
◎上映日期 2022-04-15(美国)
◎IMDb评分  0/10 from 0 users
◎IMDb链接  https://www.imdb.com/title/tt19866966/
◎豆瓣评分 0/10 from 0 users
◎豆瓣链接    https://movie.douban.com/subject/35856757/
◎片  长 38分钟
◎导  演 雷蒙德·S·佩尔西 Raymond S. Persi
◎编  剧 乔希·萨尔茨曼 Josh Saltzman / 布莱恩·舒尔茨 Bryan Schulz / 克莱格·舒尔茨 Craig Schulz / 科尼利厄斯·乌里亚诺 Cornelius Uliano
◎主  演 卡勒布·贝拉万斯 Caleb Bellavance
                    威尔·巴尼娅 Will Bhaneja
                    查理·博伊尔 Charlie Boyle
                    霍莉·戈尔斯基 Holly Gorski
                    海蒂·克拉格滕 Hattie Kragten
                    伊莎贝拉·利奥 Isabella Leo
                    雅各布·马泽拉 Jacob Mazeral
                    特里·迈古林 Terry McGurrin
                    玛雅·米萨尔耶维奇 Maya Misaljevic
                    马修·穆奇 Matthew Mucci
                    玛丽亚·纳什 Maria Nash
                    娜塔莎·内森 Natasha Nathan
                    泰勒·詹姆斯·内森 Tyler James Nathan
                    卢卡斯·阮/莱西·佩里  Lucas Nguyen / Lexi Perri



◎简  介

       莎莉和棒球场上一朵特别的小花的关系可能会给这场大赛带来灾难。对于查理·布朗和他的团队来说,这只是他们需要的灵感,以对他们的环境产生积极影响。
Video
ID : 1
Format : HEVC
Format/Info : High Efficiency Video Coding
Format profile : Main 10@L5@High
HDR format : SMPTE ST 2086, HDR10 compatible
Codec ID : V_MPEGH/ISO/HEVC
Duration : 38 min 5 s
Bit rate : 24.7 Mb/s
Width : 3 840 pixels
Height : 1 920 pixels
Display aspect ratio : 2.000
Frame rate mode : Constant
Frame rate : 23.976 FPS
Color space : YUV
Chroma subsampling : 4:2:0 (Type 2)
Bit depth : 10 bits
Bits/(Pixel*Frame) : 0.140
Stream size : 6.57 GiB (97%)
Language : English
Default : Yes
Forced : No
Color range : Limited
Color primaries : BT.2020
Transfer characteristics : PQ
Matrix coefficients : BT.2020 non-constant
Mastering display color primaries : Display P3
Mastering display luminance : min: 0.0050 cd/m2, max: 1000 cd/m2
Maximum Content Light Level : 634 cd/m2
Maximum Frame-Average Light Level : 181 cd/m2

Audio
ID : 2
Format : E-AC-3 JOC
Format/Info : Enhanced AC-3 with Joint Object Coding
Commercial name : Dolby Digital Plus with Dolby Atmos
Codec ID : A_EAC3
Duration : 38 min 5 s
Bit rate mode : Constant
Bit rate : 768 kb/s
Channel(s) : 6 channels
Channel layout : L R C LFE Ls Rs
Sampling rate : 48.0 kHz
Frame rate : 31.250 FPS (1536 SPF)
Compression mode : Lossy
Stream size : 209 MiB (3%)
Language : English
Service kind : Complete Main
Default : Yes
Forced : No
Complexity index : 16
Number of dynamic objects : 15
Bed channel count : 1 channel
Bed channel configuration : LFE

Text #1
ID : 3
Format : UTF-8
Codec ID : S_TEXT/UTF8
Codec ID/Info : UTF-8 Plain Text
Duration : 34 min 16 s
Bit rate : 55 b/s
Count of elements : 373
Stream size : 13.9 KiB (0%)
Title : English
Language : English
Default : No
Forced : No

Text #2
ID : 4
Format : UTF-8
Codec ID : S_TEXT/UTF8
Codec ID/Info : UTF-8 Plain Text
Duration : 36 min 26 s
Bit rate : 66 b/s
Count of elements : 602
Stream size : 17.8 KiB (0%)
Title : English (SDH)
Language : English
Default : No
Forced : No

Text #3
ID : 5
Format : UTF-8
Codec ID : S_TEXT/UTF8
Codec ID/Info : UTF-8 Plain Text
Duration : 37 min 42 s
Bit rate : 71 b/s
Count of elements : 386
Stream size : 19.8 KiB (0%)
Title : العربية
Language : Arabic
Default : No
Forced : No

Text #4
ID : 6
Format : UTF-8
Codec ID : S_TEXT/UTF8
Codec ID/Info : UTF-8 Plain Text
Duration : 37 min 42 s
Bit rate : 71 b/s
Count of elements : 357
Stream size : 19.9 KiB (0%)
Title : български
Language : Bulgarian
Default : No
Forced : No

Text #5
ID : 7
Format : UTF-8
Codec ID : S_TEXT/UTF8
Codec ID/Info : UTF-8 Plain Text
Duration : 37 min 42 s
Bit rate : 44 b/s
Count of elements : 356
Stream size : 12.4 KiB (0%)
Title : Čeština
Language : Czech
Default : No
Forced : No

Text #6
ID : 8
Format : UTF-8
Codec ID : S_TEXT/UTF8
Codec ID/Info : UTF-8 Plain Text
Duration : 37 min 20 s
Bit rate : 49 b/s
Count of elements : 344
Stream size : 13.7 KiB (0%)
Title : dansk
Language : Danish
Default : No
Forced : No

Text #7
ID : 9
Format : UTF-8
Codec ID : S_TEXT/UTF8
Codec ID/Info : UTF-8 Plain Text
Duration : 37 min 44 s
Bit rate : 55 b/s
Count of elements : 365
Stream size : 15.3 KiB (0%)
Title : Deutsch
Language : German
Default : No
Forced : No

Text #8
ID : 10
Format : UTF-8
Codec ID : S_TEXT/UTF8
Codec ID/Info : UTF-8 Plain Text
Duration : 37 min 42 s
Bit rate : 76 b/s
Count of elements : 370
Stream size : 21.2 KiB (0%)
Title : Ελληνικά
Language : Greek
Default : No
Forced : No

Text #9
ID : 11
Format : UTF-8
Codec ID : S_TEXT/UTF8
Codec ID/Info : UTF-8 Plain Text
Duration : 37 min 20 s
Bit rate : 51 b/s
Count of elements : 387
Stream size : 14.0 KiB (0%)
Title : Español (Latinoamérica)
Language : Spanish
Default : No
Forced : No

Text #10
ID : 12
Format : UTF-8
Codec ID : S_TEXT/UTF8
Codec ID/Info : UTF-8 Plain Text
Duration : 37 min 42 s
Bit rate : 53 b/s
Count of elements : 397
Stream size : 14.7 KiB (0%)
Title : Español (España)
Language : Spanish
Default : No
Forced : No

Text #11
ID : 13
Format : UTF-8
Codec ID : S_TEXT/UTF8
Codec ID/Info : UTF-8 Plain Text
Duration : 37 min 42 s
Bit rate : 44 b/s
Count of elements : 350
Stream size : 12.3 KiB (0%)
Title : eesti
Language : Estonian
Default : No
Forced : No

Text #12
ID : 14
Format : UTF-8
Codec ID : S_TEXT/UTF8
Codec ID/Info : UTF-8 Plain Text
Duration : 37 min 20 s
Bit rate : 45 b/s
Count of elements : 355
Stream size : 12.6 KiB (0%)
Title : Suomi
Language : Finnish
Default : No
Forced : No

Text #13
ID : 15
Format : UTF-8
Codec ID : S_TEXT/UTF8
Codec ID/Info : UTF-8 Plain Text
Duration : 36 min 31 s
Bit rate : 48 b/s
Count of elements : 373
Stream size : 13.1 KiB (0%)
Title : Français (France)
Language : French
Default : No
Forced : No

Text #14
ID : 16
Format : UTF-8
Codec ID : S_TEXT/UTF8
Codec ID/Info : UTF-8 Plain Text
Duration : 36 min 31 s
Bit rate : 48 b/s
Count of elements : 373
Stream size : 13.1 KiB (0%)
Title : Français (Canada)
Language : French
Default : No
Forced : No

Text #15
ID : 17
Format : UTF-8
Codec ID : S_TEXT/UTF8
Codec ID/Info : UTF-8 Plain Text
Duration : 37 min 42 s
Bit rate : 70 b/s
Count of elements : 386
Stream size : 19.3 KiB (0%)
Title : עברית
Language : Hebrew
Default : No
Forced : No

Text #16
ID : 18
Format : UTF-8
Codec ID : S_TEXT/UTF8
Codec ID/Info : UTF-8 Plain Text
Duration : 37 min 42 s
Bit rate : 129 b/s
Count of elements : 386
Stream size : 35.8 KiB (0%)
Title : हिन्दी
Language : Hindi
Default : No
Forced : No

Text #17
ID : 19
Format : UTF-8
Codec ID : S_TEXT/UTF8
Codec ID/Info : UTF-8 Plain Text
Duration : 37 min 42 s
Bit rate : 47 b/s
Count of elements : 385
Stream size : 13.0 KiB (0%)
Title : magyar
Language : Hungarian
Default : No
Forced : No

Text #18
ID : 20
Format : UTF-8
Codec ID : S_TEXT/UTF8
Codec ID/Info : UTF-8 Plain Text
Duration : 37 min 42 s
Bit rate : 49 b/s
Count of elements : 385
Stream size : 13.7 KiB (0%)
Title : Bahasa Indonesia
Language : Indonesian
Default : No
Forced : No

Text #19
ID : 21
Format : UTF-8
Codec ID : S_TEXT/UTF8
Codec ID/Info : UTF-8 Plain Text
Duration : 37 min 42 s
Bit rate : 55 b/s
Count of elements : 387
Stream size : 15.4 KiB (0%)
Title : Italiano
Language : Italian
Default : No
Forced : No

Text #20
ID : 22
Format : UTF-8
Codec ID : S_TEXT/UTF8
Codec ID/Info : UTF-8 Plain Text
Duration : 37 min 20 s
Bit rate : 48 b/s
Count of elements : 408
Stream size : 13.3 KiB (0%)
Title : 日本語
Language : Japanese
Default : No
Forced : No

Text #21
ID : 23
Format : UTF-8
Codec ID : S_TEXT/UTF8
Codec ID/Info : UTF-8 Plain Text
Duration : 37 min 42 s
Bit rate : 56 b/s
Count of elements : 386
Stream size : 15.7 KiB (0%)
Title : 한국어
Language : Korean
Default : No
Forced : No

Text #22
ID : 24
Format : UTF-8
Codec ID : S_TEXT/UTF8
Codec ID/Info : UTF-8 Plain Text
Duration : 37 min 42 s
Bit rate : 47 b/s
Count of elements : 385
Stream size : 13.0 KiB (0%)
Title : lietuvių
Language : Lithuanian
Default : No
Forced : No

Text #23
ID : 25
Format : UTF-8
Codec ID : S_TEXT/UTF8
Codec ID/Info : UTF-8 Plain Text
Duration : 37 min 42 s
Bit rate : 51 b/s
Count of elements : 379
Stream size : 14.1 KiB (0%)
Title : latviešu
Language : Latvian
Default : No
Forced : No

Text #24
ID : 26
Format : UTF-8
Codec ID : S_TEXT/UTF8
Codec ID/Info : UTF-8 Plain Text
Duration : 37 min 20 s
Bit rate : 47 b/s
Count of elements : 384
Stream size : 12.9 KiB (0%)
Title : Bahasa Melayu
Language : Malay
Default : No
Forced : No

Text #25
ID : 27
Format : UTF-8
Codec ID : S_TEXT/UTF8
Codec ID/Info : UTF-8 Plain Text
Duration : 37 min 42 s
Bit rate : 42 b/s
Count of elements : 344
Stream size : 11.7 KiB (0%)
Title : Nederlands
Language : Dutch
Default : No
Forced : No

Text #26
ID : 28
Format : UTF-8
Codec ID : S_TEXT/UTF8
Codec ID/Info : UTF-8 Plain Text
Duration : 37 min 20 s
Bit rate : 45 b/s
Count of elements : 332
Stream size : 12.5 KiB (0%)
Title : Nederlands (België)
Language : Dutch
Default : No
Forced : No

Text #27
ID : 29
Format : UTF-8
Codec ID : S_TEXT/UTF8
Codec ID/Info : UTF-8 Plain Text
Duration : 37 min 20 s
Bit rate : 48 b/s
Count of elements : 307
Stream size : 13.2 KiB (0%)
Title : norsk
Language : Norwegian
Default : No
Forced : No

Text #28
ID : 30
Format : UTF-8
Codec ID : S_TEXT/UTF8
Codec ID/Info : UTF-8 Plain Text
Duration : 37 min 42 s
Bit rate : 43 b/s
Count of elements : 347
Stream size : 12.1 KiB (0%)
Title : polski
Language : Polish
Default : No
Forced : No

Text #29
ID : 31
Format : UTF-8
Codec ID : S_TEXT/UTF8
Codec ID/Info : UTF-8 Plain Text
Duration : 37 min 20 s
Bit rate : 48 b/s
Count of elements : 383
Stream size : 13.4 KiB (0%)
Title : Português
Language : Portuguese
Default : No
Forced : No

Text #30
ID : 32
Format : UTF-8
Codec ID : S_TEXT/UTF8
Codec ID/Info : UTF-8 Plain Text
Duration : 37 min 42 s
Bit rate : 39 b/s
Count of elements : 386
Stream size : 11.0 KiB (0%)
Title : Português (Brasil)
Language : Portuguese
Default : No
Forced : No

Text #31
ID : 33
Format : UTF-8
Codec ID : S_TEXT/UTF8
Codec ID/Info : UTF-8 Plain Text
Duration : 37 min 42 s
Bit rate : 84 b/s
Count of elements : 386
Stream size : 23.3 KiB (0%)
Title : Русский
Language : Russian
Default : No
Forced : No

Text #32
ID : 34
Format : UTF-8
Codec ID : S_TEXT/UTF8
Codec ID/Info : UTF-8 Plain Text
Duration : 37 min 42 s
Bit rate : 44 b/s
Count of elements : 375
Stream size : 12.3 KiB (0%)
Title : Slovenčina
Language : Slovak
Default : No
Forced : No

Text #33
ID : 35
Format : UTF-8
Codec ID : S_TEXT/UTF8
Codec ID/Info : UTF-8 Plain Text
Duration : 37 min 42 s
Bit rate : 41 b/s
Count of elements : 346
Stream size : 11.3 KiB (0%)
Title : slovenščina
Language : Slovenian
Default : No
Forced : No

Text #34
ID : 36
Format : UTF-8
Codec ID : S_TEXT/UTF8
Codec ID/Info : UTF-8 Plain Text
Duration : 37 min 20 s
Bit rate : 49 b/s
Count of elements : 353
Stream size : 13.7 KiB (0%)
Title : Svenska
Language : Swedish
Default : No
Forced : No

Text #35
ID : 37
Format : UTF-8
Codec ID : S_TEXT/UTF8
Codec ID/Info : UTF-8 Plain Text
Duration : 37 min 42 s
Bit rate : 162 b/s
Count of elements : 385
Stream size : 45.0 KiB (0%)
Title : தமிழ்
Language : Tamil
Default : No
Forced : No

Text #36
ID : 38
Format : UTF-8
Codec ID : S_TEXT/UTF8
Codec ID/Info : UTF-8 Plain Text
Duration : 37 min 42 s
Bit rate : 149 b/s
Count of elements : 385
Stream size : 41.3 KiB (0%)
Title : తెలుగు
Language : Telugu
Default : No
Forced : No

Text #37
ID : 39
Format : UTF-8
Codec ID : S_TEXT/UTF8
Codec ID/Info : UTF-8 Plain Text
Duration : 37 min 42 s
Bit rate : 106 b/s
Count of elements : 385
Stream size : 29.4 KiB (0%)
Title : ไทย
Language : Thai
Default : No
Forced : No

Text #38
ID : 40
Format : UTF-8
Codec ID : S_TEXT/UTF8
Codec ID/Info : UTF-8 Plain Text
Duration : 37 min 20 s
Bit rate : 51 b/s
Count of elements : 383
Stream size : 14.2 KiB (0%)
Title : Türkçe
Language : Turkish
Default : No
Forced : No

Text #39
ID : 41
Format : UTF-8
Codec ID : S_TEXT/UTF8
Codec ID/Info : UTF-8 Plain Text
Duration : 37 min 42 s
Bit rate : 71 b/s
Count of elements : 386
Stream size : 19.8 KiB (0%)
Title : українська
Language : Ukrainian
Default : No
Forced : No

Text #40
ID : 42
Format : UTF-8
Codec ID : S_TEXT/UTF8
Codec ID/Info : UTF-8 Plain Text
Duration : 37 min 42 s
Bit rate : 68 b/s
Count of elements : 386
Stream size : 19.0 KiB (0%)
Title : Tiếng Việt
Language : Vietnamese
Default : No
Forced : No

Text #41
ID : 43
Format : UTF-8
Codec ID : S_TEXT/UTF8
Codec ID/Info : UTF-8 Plain Text
Duration : 37 min 42 s
Bit rate : 46 b/s
Count of elements : 386
Stream size : 12.8 KiB (0%)
Title : 中文(
廣東話Language : 中文
Default : No
Forced : No

Text #42
ID : 44
Format : UTF-8
Codec ID : S_TEXT/UTF8
Codec ID/Info : UTF-8 Plain Text
Duration : 37 min 42 s
Bit rate : 47 b/s
Count of elements : 385
Stream size : 13.2 KiB (0%)
Title : 中文(简体)
Language : 中文
Default : No
Forced : No

Text #43
ID : 45
Format : UTF-8
Codec ID : S_TEXT/UTF8
Codec ID/Info : UTF-8 Plain Text
Duration : 37 min 42 s
Bit rate : 46 b/s
Count of elements : 386
Stream size : 12.8 KiB (0%)
Title : 中文(繁體)
Language : 中文
Default : No
Forced : No

资源速度为零或资源敏感被和谐时,推荐使用qBittorrent等下载软件,有条件的推荐115更好的下载软件!

下载地址:


游客,如果您要查看本帖隐藏内容请回复

游客,如果您要查看本帖隐藏内容请回复





上一篇:双生 / The Twin (2022) 4k高清版本下载
下一篇:我和大熊 / The Bears and I (1974) 4k高清版本下载
回复

使用道具 举报

0

主题

1320

帖子

3988

积分

4K家园VIP

Rank: 9Rank: 9Rank: 9

积分
3988
发表于 2022-5-6 15:27:29 | 显示全部楼层
感谢楼主发帖,前排顶起
回复 支持 反对

使用道具 举报

0

主题

3

帖子

18

积分

新手上路

Rank: 1

积分
18
发表于 2022-5-7 05:28:11 | 显示全部楼层

Where is Administration 4kjia.com ??

Where is admin?
It is about advertisement on your website.
Thank.
回复 支持 反对

使用道具 举报

1

主题

1388

帖子

4018

积分

4K家园VIP

Rank: 9Rank: 9Rank: 9

积分
4018
发表于 2022-5-8 01:33:50 | 显示全部楼层
沙发???
回复 支持 反对

使用道具 举报

0

主题

1

帖子

6

积分

新手上路

Rank: 1

积分
6
发表于 2022-5-8 04:00:19 | 显示全部楼层

nude cam sites

nude cam sites
回复 支持 反对

使用道具 举报

0

主题

7

帖子

20

积分

新手上路

Rank: 1

积分
20
发表于 2022-5-8 17:27:53 | 显示全部楼层
谢谢楼主分享
回复 支持 反对

使用道具 举报

2

主题

1166

帖子

3520

积分

4K家园VIP

Rank: 9Rank: 9Rank: 9

积分
3520
发表于 2022-5-8 23:32:14 | 显示全部楼层
楼下的接上
回复 支持 反对

使用道具 举报

3

主题

1332

帖子

4022

积分

4K家园VIP

Rank: 9Rank: 9Rank: 9

积分
4022
发表于 2022-5-9 03:48:59 | 显示全部楼层
顶起出售广告位
回复 支持 反对

使用道具 举报

56

主题

1525

帖子

4431

积分

4K家园VIP

Rank: 9Rank: 9Rank: 9

积分
4431
发表于 2022-5-9 06:01:36 | 显示全部楼层
前排支持下
回复 支持 反对

使用道具 举报

0

主题

1

帖子

6

积分

新手上路

Rank: 1

积分
6
发表于 2022-5-10 01:15:49 | 显示全部楼层

bonga com live

bonga com live
回复 支持 反对

使用道具 举报

您需要登录后才可以回帖 登录 | 立即注册

本版积分规则

精彩图文
Archiver|手机版|TAG|Sitemap|新帖|专题|联系我们:邮箱: 4kjia.com@gmail.com   

4k家园   ©2019