[4K电影] 我和大熊 / The Bears and I (1974) 4k高清版本下载

[复制链接]

2325

主题

2474

帖子

1万

积分

超级版主

Rank: 8Rank: 8

积分
17918
 楼主| 发表于 2022-5-6 19:59:09 | 显示全部楼层 |阅读模式

QQ图片20220506195738_副本.png

◎译  名 我和大熊
◎片  名 The Bears and I
◎年  代 1974
◎产  地 美国
◎类  别 剧情 / 家庭
◎语  言 英语
◎上映日期 1974-07-31
◎IMDb评分  6.2/10 from 451 users
◎IMDb链接  https://www.imdb.com/title/tt0071199
◎豆瓣评分 0/10 from 0 users
◎豆瓣链接 https://movie.douban.com/subject/26628661/
◎片  长 89分钟
◎导  演 Bernard McEveety
◎编  剧 约翰·韦登 John Whedon / 杰克·斯皮尔斯 Jack Speirs
◎主  演 帕特里克·韦恩 Patrick Wayne
       奇夫·丹·乔治 Chief Dan George
       安德鲁·达根 Andrew Duggan
       迈克尔·安萨拉 Michael Ansara
       罗伯特·派恩 Robert Pine
       瓦伦丁·德瓦尔加斯 Valentin de Vargas
       哈尔·贝勒 Hal Baylor
       彼得·博肯特 Peter Borkent


◎简  介

  美版哆啦A梦,一定是这样的

Video
ID : 1
Format : HEVC
Format/Info : High Efficiency Video Coding
Format profile : Main 10@L5@High
HDR format : SMPTE ST 2086, HDR10 compatible
Codec ID : V_MPEGH/ISO/HEVC
Duration : 1 h 28 min
Bit rate : 24.8 Mb/s
Width : 3 840 pixels
Height : 2 072 pixels
Display aspect ratio : 1.85:1
Frame rate mode : Constant
Frame rate : 23.976 FPS
Color space : YUV
Chroma subsampling : 4:2:0 (Type 2)
Bit depth : 10 bits
Bits/(Pixel*Frame) : 0.130
Stream size : 15.4 GiB (99%)
Default : Yes
Forced : No
Color range : Limited
Color primaries : BT.2020
Transfer characteristics : PQ
Matrix coefficients : BT.2020 non-constant
Mastering display color primaries : Display P3
Mastering display luminance : min: 0.0020 cd/m2, max: 1000 cd/m2
Maximum Content Light Level : 9875 cd/m2
Maximum Frame-Average Light Level : 155 cd/m2

Audio
ID : 2
Format : AAC LC
Format/Info : Advanced Audio Codec Low Complexity
Codec ID : A_AAC-2
Duration : 1 h 28 min
Bit rate : 124 kb/s
Channel(s) : 2 channels
Channel layout : L R
Sampling rate : 48.0 kHz
Frame rate : 46.875 FPS (1024 SPF)
Compression mode : Lossy
Stream size : 78.7 MiB (0%)
Language : English
Default : Yes
Forced : No

Text
ID : 3
Format : UTF-8
Codec ID : S_TEXT/UTF8
Codec ID/Info : UTF-8 Plain Text
Duration : 1 h 26 min
Bit rate : 57 b/s
Count of elements : 1066
Stream size : 36.2 KiB (0%)
Title : Canadian
Language : French
Default : No
Forced : No


资源速度为零或资源敏感被和谐时,推荐使用qBittorrent等下载软件,有条件的推荐115更好的下载软件!

下载地址:


游客,如果您要查看本帖隐藏内容请回复



.

上一篇:好事一小朵,查理·布朗 (内封简繁中字) (2022) 4k高清版本下载
下一篇:本回家了 / Ben is Back (2018) 4k高清版本下载
回复

使用道具 举报

0

主题

1379

帖子

3987

积分

4K家园VIP

Rank: 9Rank: 9Rank: 9

积分
3987
发表于 2022-5-6 19:59:14 | 显示全部楼层
我擦!我要沙发!
回复 支持 反对

使用道具 举报

61

主题

1495

帖子

4309

积分

4K家园VIP

Rank: 9Rank: 9Rank: 9

积分
4309
发表于 2022-5-7 01:15:13 | 显示全部楼层
为毛老子总也抢不到沙发?!!
回复 支持 反对

使用道具 举报

3

主题

1345

帖子

4061

积分

4K家园VIP

Rank: 9Rank: 9Rank: 9

积分
4061
发表于 2022-5-7 09:30:13 来自手机 | 显示全部楼层
支持你哈...................................
回复 支持 反对

使用道具 举报

0

主题

472

帖子

2877

积分

注册会员

Rank: 2

积分
2877
发表于 2022-5-7 11:05:32 | 显示全部楼层
谢谢楼主分享
回复 支持 反对

使用道具 举报

38

主题

1497

帖子

4309

积分

4K家园VIP

Rank: 9Rank: 9Rank: 9

积分
4309
发表于 2022-5-7 13:29:47 | 显示全部楼层
发发呆,回回帖,工作结束~
回复 支持 反对

使用道具 举报

3

主题

1632

帖子

4538

积分

4K家园VIP

Rank: 9Rank: 9Rank: 9

积分
4538
发表于 2022-5-7 14:07:16 来自手机 | 显示全部楼层
支持楼主,用户楼主,楼主英明呀!!!
回复 支持 反对

使用道具 举报

0

主题

721

帖子

2543

积分

注册会员

Rank: 2

积分
2543
发表于 2022-5-9 16:16:15 | 显示全部楼层
感谢分享     
回复 支持 反对

使用道具 举报

您需要登录后才可以回帖 登录 | 立即注册

本版积分规则

精彩图文
Archiver|手机版|TAG|Sitemap|新帖|专题|联系我们:邮箱: 4kjia.com@gmail.com   

4k家园   ©2019